<?xml version="1.0" standalone="no"?> <!DOCTYPE svg PUBLIC "-//W3C//DTD SVG 1.0//EN" "http://www.w3.org/TR/2001/REC-SVG-20010904/DTD/svg10.dtd" > <svg xmlns="http://www.w3.org/2000/svg" width="100%" height="100%">
<defs >
<font id="LiberationSans" horiz-adv-x="1209" ><font-face
    font-family="Liberation Sans"
    units-per-em="2048"
    panose-1="2 11 6 4 2 2 2 2 2 4"
    ascent="1864"
    descent="-621"
    alphabetic="0" />
<missing-glyph horiz-adv-x="1536" d="M281 1333V76H1254V1333H281ZM205 1409H1330V0H205V1409Z" />
<glyph unicode=" " glyph-name="space" horiz-adv-x="569" />
<glyph unicode="!" glyph-name="exclam" horiz-adv-x="569" d="M185 0V201H379V0H185ZM359 397H211L187 1409H383L359 397Z" />
<glyph unicode="&quot;" glyph-name="quotedbl" horiz-adv-x="727" d="M249 966H108L87 1409H271L249 966ZM618 966H476L456 1409H640L618 966Z" />
<glyph unicode="#" glyph-name="numbersign" horiz-adv-x="1139" d="M425 885L345 516H707L785 885H425ZM896 885L818 516H1078V408H795L707 0H597L683 408H320L236 0H126L210 408H9V516H234L312 885H60V993H334L423 1401H533L445 993H808L896 1401H1006L918 993H1129V885H896Z"
/>
<glyph unicode="$" glyph-name="dollar" horiz-adv-x="1139" d="M258 1048Q258 994 278 957T333 895T415 854T518 823V1244Q446 1240 396 1224T316 1181T272 1121T258 1048ZM934 394Q934 457 911 497T847 562T753 604T642 635V167Q707 171 761 186T853 230T913
298T934 394ZM518 20Q301 29 179 121T22 379L192 416Q203 363 226 320T288 244T383 193T518 168V664L498 669Q421 687 347 712T215 778T122 884T86 1046Q86 1130 118 1192T207 1295T344 1359T518 1385V1516H642V1385Q742 1380 814 1358T938 1295T1022 1198T1075
1065L901 1032Q881 1126 820 1178T642 1242V797Q701 783 758 768T866 733T962 684T1038 617T1088 523T1106 396Q1106 319 1078 254T993 138T849 57T642 20V-142H518V20Z" />
<glyph unicode="%" glyph-name="percent" horiz-adv-x="1821" d="M560 975Q560 1073 549 1138T517 1242T465 1297T394 1313Q351 1313 319 1297T264 1241T231 1137T220 975Q220 880 231 815T264 711T318 654T392 637Q430 637 461 654T514 710T548 815T560 975ZM1600
434Q1600 533 1589 598T1557 703T1504 758T1432 774Q1390 774 1358 758T1304 702T1271 598T1260 434Q1260 339 1271 275T1304 172T1357 115T1430 98Q1469 98 1500 115T1554 171T1588 275T1600 434ZM394 1421Q458 1421 515 1401T615 1329T682 1192T707 975Q707 849
682 763T615 624T514 547T390 524Q323 524 265 547T165 623T98 762T73 975Q73 1106 97 1192T165 1329T267 1400T394 1421ZM527 0H372L1294 1409H1451L527 0ZM1748 434Q1748 309 1723 224T1654 86T1552 11T1428 -12T1305 10T1205 85T1138 222T1113 434Q1113 567
1137 654T1204 792T1305 864T1432 885Q1498 885 1555 865T1655 793T1723 654T1748 434Z" />
<glyph unicode="&amp;" glyph-name="ampersand" horiz-adv-x="1366" d="M795 217Q706 322 624 437T476 674Q363 626 302 552T240 373Q240 318 257 271T311 188T401 132T529 111Q573 111 612 120T686 145T747 179T795 217ZM869 1133Q869 1170 856 1200T818 1251T760
1284T683 1296Q587 1296 537 1245T487 1102Q487 1043 505 979T552 858Q617 884 675 911T776 971T844 1043T869 1133ZM1193 -12Q1097 -12 1025 21T895 115Q865 89 827 65T743 22T642 -8T523 -20Q406 -20 321 10T180 92T99 216T72 371Q72 450 97 514T168 631T277
725T415 800Q397 834 383 872T357 950T340 1028T334 1102Q334 1168 354 1225T416 1325T525 1392T685 1417Q758 1417 819 1398T926 1343T996 1254T1021 1133Q1021 1058 988 1000T899 895T769 812T612 741Q674 627 747 527T905 329Q966 419 1006 518T1076 739L1221
696Q1186 557 1133 444T1009 227Q1062 173 1115 151T1217 129Q1249 129 1278 132T1334 145V10Q1306 -1 1269 -6T1193 -12Z" />
<glyph unicode="&apos;" glyph-name="quotesingle" horiz-adv-x="391" d="M266 966H125L104 1409H288L266 966Z" />
<glyph unicode="(" glyph-name="parenleft" horiz-adv-x="682" d="M127 532Q127 671 148 798T214 1042T329 1269T496 1484H670Q576 1379 508 1269T395 1041T330 796T308 530T329 264T395 19T507 -209T670 -424H496Q399 -319 329 -209T214 18T148 261T127 528V532Z" />
<glyph unicode=")" glyph-name="parenright" horiz-adv-x="682" d="M555 528Q555 388 534 262T468 18T353 -209T186 -424H12Q106 -319 174 -209T287 19T352 264T374 530T353 796T287 1040T175 1268T12 1484H186Q283 1379 353 1269T468 1042T534 798T555 532V528Z" />
<glyph unicode="*" glyph-name="asterisk" horiz-adv-x="797" d="M456 1114L720 1217L765 1085L483 1012L668 762L549 690L399 948L243 692L124 764L313 1012L33 1085L78 1219L345 1112L333 1409H469L456 1114Z" />
<glyph unicode="+" glyph-name="plus" horiz-adv-x="1196" d="M671 608V180H524V608H100V754H524V1182H671V754H1095V608H671Z" />
<glyph unicode="," glyph-name="comma" horiz-adv-x="569" d="M385 219V51Q385 -2 381 -45T366 -126T342 -197T307 -262H184Q229 -197 253 -131T278 0H190V219H385Z" />
<glyph unicode="-" glyph-name="hyphen" horiz-adv-x="682" d="M91 464V624H591V464H91Z" />
<glyph unicode="." glyph-name="period" horiz-adv-x="569" d="M187 0V219H382V0H187Z" />
<glyph unicode="/" glyph-name="slash" horiz-adv-x="569" d="M0 -20L411 1484H569L162 -20H0Z" />
<glyph unicode="0" glyph-name="zero" horiz-adv-x="1139" d="M876 705Q876 873 856 984T797 1162T702 1256T573 1284Q497 1284 439 1256T342 1162T282 984T262 705Q262 543 282 432T342 254T439 157T569 127Q640 127 697 156T793 253T854 432T876 705ZM1059 705Q1059
502 1021 364T916 140T759 17T567 -20Q464 -20 375 17T221 139T118 362T80 705Q80 918 117 1057T221 1280T377 1396T573 1430Q674 1430 762 1397T917 1280T1021 1058T1059 705Z" />
<glyph unicode="1" glyph-name="one" horiz-adv-x="1139" d="M156 0V153H515V1237L197 1010V1180L530 1409H696V153H1039V0H156Z" />
<glyph unicode="2" glyph-name="two" horiz-adv-x="1139" d="M103 0V127Q154 244 227 333T382 495T542 630T686 754T789 884T829 1038Q829 1098 811 1143T759 1220T678 1266T572 1282Q518 1282 471 1267T386 1222T326 1148T295 1044L111 1061Q120 1137 153 1204T244
1321T383 1401T572 1430Q677 1430 759 1405T897 1331T984 1210T1014 1044Q1014 973 989 909T921 787T822 675T705 570L582 468Q520 417 466 366T368 263T301 153H1036V0H103Z" />
<glyph unicode="3" glyph-name="three" horiz-adv-x="1139" d="M1049 389Q1049 292 1018 216T926 88T776 8T571 -20Q440 -20 351 12T203 98T116 220T78 362L264 379Q272 323 293 277T352 198T443 147T571 129Q707 129 784 196T862 395Q862 473 828 520T742 594T630
630T518 639H416V795H514Q565 795 620 805T720 843T795 918T825 1038Q825 1151 759 1216T561 1282Q442 1282 369 1221T283 1049L102 1063Q113 1156 153 1225T254 1339T395 1407T563 1430Q681 1430 766 1401T905 1321T984 1202T1010 1057Q1010 995 993 941T940 844T849
770T715 723V719Q800 710 863 681T967 607T1028 507T1049 389Z" />
<glyph unicode="4" glyph-name="four" horiz-adv-x="1139" d="M711 1206Q709 1201 701 1186L683 1154L662 1118Q652 1099 644 1087L283 555Q278 547 268 534L249 508L229 481Q219 468 213 461H711V1206ZM881 319V0H711V319H47V459L692 1409H881V461H1079V319H881Z" />
<glyph unicode="5" glyph-name="five" horiz-adv-x="1139" d="M1053 459Q1053 353 1021 265T926 114T770 15T553 -20Q442 -20 360 6T220 77T130 184T82 315L264 336Q275 296 295 259T349 192T434 145T557 127Q627 127 684 148T781 212T844 315T866 455Q866 520
845 574T785 668T690 730T561 752Q516 752 478 744T408 722T349 690T299 651H123L170 1409H971V1256H334L307 809Q355 846 427 872T598 899Q703 899 787 867T930 777T1021 637T1053 459Z" />
<glyph unicode="6" glyph-name="six" horiz-adv-x="1139" d="M866 453Q866 526 848 585T794 685T705 749T582 772Q533 772 483 758T393 711T327 625T301 496Q301 418 321 351T378 233T469 154T588 125Q653 125 704 147T792 212T847 316T866 453ZM1049 461Q1049
355 1020 267T933 115T790 16T594 -20Q471 -20 379 27T226 162T135 379T104 672Q104 860 138 1002T238 1239T396 1382T608 1430Q680 1430 743 1415T857 1367T948 1278T1010 1143L838 1112Q810 1203 749 1243T606 1284Q532 1284 472 1249T370 1145T306 970T283 725Q332
816 421 863T625 911Q721 911 799 880T932 791T1018 649T1049 461Z" />
<glyph unicode="7" glyph-name="seven" horiz-adv-x="1139" d="M1036 1263Q930 1101 841 952T688 651T589 340T553 0H365Q365 169 405 331T513 650T671 958T862 1256H105V1409H1036V1263Z" />
<glyph unicode="8" glyph-name="eight" horiz-adv-x="1139" d="M863 410Q863 461 849 508T801 592T710 651T566 674Q487 674 432 652T342 592T291 507T275 406Q275 341 291 288T342 196T434 136T572 115Q654 115 710 136T800 195T848 288T863 410ZM828 1057Q828
1110 815 1154T770 1229T689 1278T566 1296Q495 1296 446 1279T366 1230T320 1154T306 1057Q306 1015 317 971T357 891T437 832T568 809Q653 809 704 832T783 891T819 971T828 1057ZM1050 393Q1050 303 1022 228T935 97T785 11T570 -20T356 11T206 96T118 226T89
391Q89 468 112 528T175 631T265 701T370 737V741Q311 755 265 786T187 860T139 957T122 1069Q122 1143 150 1208T235 1323T374 1401T566 1430Q681 1430 765 1401T905 1323T988 1207T1015 1067Q1015 1009 999 956T951 860T873 786T765 743V739Q826 729 878 703T968
633T1028 529T1050 393Z" />
<glyph unicode="9" glyph-name="nine" horiz-adv-x="1139" d="M846 907Q846 985 828 1054T773 1174T683 1254T559 1284Q494 1284 442 1261T354 1196T299 1092T279 956Q279 885 296 824T349 719T436 649T557 623Q607 623 658 640T751 692T819 780T846 907ZM1042
733Q1042 545 1007 404T905 168T745 27T532 -20Q451 -20 386 -4T270 48T183 139T125 274L297 301Q325 210 384 168T535 125Q608 125 668 159T771 263T838 436T864 680Q843 633 807 596T724 534T623 495T514 481Q418 481 341 515T209 612T126 761T96 956Q96 1065
127 1153T219 1302T366 1397T565 1430Q800 1430 921 1256T1042 733Z" />
<glyph unicode=":" glyph-name="colon" horiz-adv-x="569" d="M187 0V207H382V0H187ZM187 875V1082H382V875H187Z" />
<glyph unicode=";" glyph-name="semicolon" horiz-adv-x="569" d="M190 875V1082H385V875H190ZM385 207V51Q385 -2 381 -45T366 -126T342 -197T307 -262H184Q229 -197 253 -131T278 0H190V207H385Z" />
<glyph unicode="&lt;" glyph-name="less" horiz-adv-x="1196" d="M101 571V776L1096 1194V1040L238 674L1096 307V154L101 571Z" />
<glyph unicode="=" glyph-name="equal" horiz-adv-x="1196" d="M100 344V492H1095V344H100ZM100 856V1004H1095V856H100Z" />
<glyph unicode="&gt;" glyph-name="greater" horiz-adv-x="1196" d="M101 154V307L959 674L101 1040V1194L1096 776V571L101 154Z" />
<glyph unicode="?" glyph-name="question" horiz-adv-x="1139" d="M438 0V201H633V0H438ZM1063 1032Q1063 961 1045 907T995 811T925 735T844 671L764 612Q724 583 693 549T642 474T621 377H446Q448 446 467 498T518 590T588 661T667 722L746 778Q784 807 814
842T862 921T881 1024T860 1129T801 1206T708 1254T586 1270Q446 1270 364 1200T268 1008L84 1020Q95 1104 128 1178T222 1309T372 1397T584 1430Q698 1430 787 1402T937 1323T1031 1197T1063 1032Z" />
<glyph unicode="@" glyph-name="at" horiz-adv-x="2079" d="M1296 747Q1296 797 1279 839T1231 911T1155 957T1054 974Q968 974 903 932T795 820T729 665T706 491Q706 371 753 303T900 235Q969 235 1029 266T1137 348T1220 465T1273 602Q1282 638 1289 678T1296
747ZM1902 755Q1902 611 1869 492T1776 286T1635 152T1455 104Q1399 104 1360 117T1295 154T1259 210T1248 280Q1248 295 1249 316T1251 350H1245Q1221 305 1187 261T1106 182T1001 126T871 104Q787 104 725 133T622 213T561 335T541 489Q541 609 576 719T678 914T836
1050T1043 1101Q1103 1101 1151 1088T1235 1050T1299 993T1344 919H1350L1389 1079H1545L1429 573Q1410 489 1401 429T1392 320Q1392 272 1413 249T1473 226Q1535 226 1588 266T1681 378T1743 545T1766 753Q1766 882 1725 993T1603 1185T1403 1312T1128 1358Q994
1358 881 1326T675 1236T514 1098T397 921T326 716T302 491Q302 350 345 231T470 27T674 -107T954 -155Q1059 -155 1150 -139T1317 -98T1453 -46T1557 7L1612 -105Q1562 -135 1495 -166T1344 -224T1163 -266T954 -283Q764 -283 617 -226T368 -65T214 180T161 491Q161
630 192 758T283 996T427 1196T619 1350T854 1449T1126 1484Q1327 1484 1473 1425T1714 1266T1856 1034T1902 755Z" />
<glyph unicode="A" glyph-name="A" horiz-adv-x="1366" d="M768 1026Q748 1078 738 1107L712 1182L694 1238Q686 1260 685 1265Q683 1260 676 1237T658 1180L632 1105L602 1024L422 561H949L768 1026ZM1167 0L1006 412H364L202 0H4L579 1409H796L1362 0H1167Z" />
<glyph unicode="B" glyph-name="B" horiz-adv-x="1366" d="M1065 412Q1065 479 1041 526T970 603T860 647T715 661H359V153H730Q803 153 864 165T970 207T1040 287T1065 412ZM984 1044Q984 1158 906 1207T680 1256H359V810H680Q764 810 822 826T916 873T968 947T984
1044ZM1258 397Q1258 290 1216 215T1103 92T938 22T740 0H168V1409H680Q797 1409 889 1390T1045 1328T1142 1222T1176 1067Q1176 1008 1160 956T1110 862T1026 789T908 743Q993 733 1058 704T1168 630T1235 526T1258 397Z" />
<glyph unicode="C" glyph-name="C" horiz-adv-x="1479" d="M792 1274Q672 1274 580 1234T425 1120T330 942T298 711T332 479T431 297T589 179T800 137Q882 137 949 158T1071 219T1169 311T1245 430L1401 352Q1363 273 1307 205T1176 87T1005 9T791 -20Q620 -20
492 34T277 186T147 418T104 711Q104 876 149 1009T282 1235T498 1379T790 1430Q1015 1430 1166 1342T1388 1081L1207 1021Q1187 1071 1153 1116T1068 1197T949 1253T792 1274Z" />
<glyph unicode="D" glyph-name="D" horiz-adv-x="1479" d="M1189 719Q1189 862 1148 963T1033 1130T856 1225T630 1256H359V153H673Q784 153 878 189T1042 296T1150 473T1189 719ZM1381 719Q1381 543 1328 409T1183 184T966 47T695 0H168V1409H634Q797 1409 934
1369T1171 1244T1325 1029T1381 719Z" />
<glyph unicode="E" glyph-name="E" horiz-adv-x="1366" d="M168 0V1409H1237V1253H359V801H1177V647H359V156H1278V0H168Z" />
<glyph unicode="F" glyph-name="F" horiz-adv-x="1251" d="M359 1253V729H1145V571H359V0H168V1409H1169V1253H359Z" />
<glyph unicode="G" glyph-name="G" horiz-adv-x="1593" d="M103 711Q103 876 147 1009T280 1235T500 1379T804 1430Q934 1430 1032 1407T1202 1341T1324 1237T1409 1098L1227 1044Q1201 1096 1165 1138T1076 1211T956 1257T799 1274Q671 1274 577 1234T420 1120T328
942T297 711T330 479T428 297T589 178T813 135Q896 135 966 149T1092 185T1192 235T1264 291V545H843V705H1440V219Q1393 171 1330 128T1187 51T1014 -1T813 -20Q635 -20 502 34T281 186T148 418T103 711Z" />
<glyph unicode="H" glyph-name="H" horiz-adv-x="1479" d="M1121 0V653H359V0H168V1409H359V813H1121V1409H1312V0H1121Z" />
<glyph unicode="I" glyph-name="I" horiz-adv-x="569" d="M189 0V1409H380V0H189Z" />
<glyph unicode="J" glyph-name="J" horiz-adv-x="1024" d="M457 -20Q286 -20 177 69T32 350L219 381Q229 316 252 270T307 193T378 149T458 135Q562 135 622 206T682 416V1253H411V1409H872V420Q872 319 844 238T763 100T632 11T457 -20Z" />
<glyph unicode="K" glyph-name="K" horiz-adv-x="1366" d="M1106 0L543 680L359 540V0H168V1409H359V703L1038 1409H1263L663 797L1343 0H1106Z" />
<glyph unicode="L" glyph-name="L" horiz-adv-x="1139" d="M168 0V1409H359V156H1071V0H168Z" />
<glyph unicode="M" glyph-name="M" horiz-adv-x="1706" d="M1366 0V940Q1366 991 1367 1044Q1368 1091 1370 1141Q1372 1200 1375 1240L1346 1139L1318 1048Q1303 1003 1287 960L923 0H789L420 960Q414 975 408 995L394 1038L378 1084L364 1130Q347 1183 331 1240Q332
1184 334 1129Q336 1065 337 1030Q338 979 338 940V0H168V1409H419L794 432Q801 412 811 381T830 316L846 254Q854 224 857 208Q860 224 868 254T886 317L907 381Q917 412 925 432L1293 1409H1538V0H1366Z" />
<glyph unicode="N" glyph-name="N" horiz-adv-x="1479" d="M1082 0L328 1200Q330 1151 333 1103Q335 1062 336 1017T338 936V0H168V1409H390L1152 201L1146 299Q1144 341 1142 390T1140 485V1409H1312V0H1082Z" />
<glyph unicode="O" glyph-name="O" horiz-adv-x="1593" d="M1300 711Q1300 838 1268 942T1172 1120T1014 1234T797 1274Q671 1274 576 1234T418 1120T323 942T291 711T323 479T419 297T577 178T795 135Q927 135 1022 178T1179 297T1270 480T1300 711ZM1495 711Q1495
546 1448 411T1310 180T1090 32T795 -20Q621 -20 490 34T272 186T141 418T97 711Q97 876 143 1009T278 1235T497 1379T797 1430Q965 1430 1095 1379T1314 1234T1449 1007T1495 711Z" />
<glyph unicode="P" glyph-name="P" horiz-adv-x="1366" d="M1066 983Q1066 1117 984 1186T738 1256H359V700H746Q911 700 988 773T1066 983ZM1258 985Q1258 893 1228 814T1137 676T985 583T773 549H359V0H168V1409H761Q886 1409 979 1379T1134 1293T1227 1159T1258 985Z" />
<glyph unicode="Q" glyph-name="Q" horiz-adv-x="1593" d="M1300 711Q1300 838 1268 942T1172 1120T1014 1234T797 1274Q671 1274 576 1234T418 1120T323 942T291 711T323 479T419 297T577 178T795 135Q927 135 1022 178T1179 297T1270 480T1300 711ZM1495 711Q1495
562 1457 439T1346 222T1168 71T928 -6Q949 -70 975 -115T1036 -188T1111 -230T1204 -244Q1232 -244 1264 -240T1319 -231V-365Q1281 -374 1236 -380T1141 -387Q1055 -387 991 -362T879 -289T795 -172T733 -16Q575 -8 456 49T257 203T137 429T97 711Q97 876 143
1009T278 1235T497 1379T797 1430Q965 1430 1095 1379T1314 1234T1449 1007T1495 711Z" />
<glyph unicode="R" glyph-name="R" horiz-adv-x="1479" d="M1136 1004Q1136 1068 1114 1115T1050 1193T948 1240T812 1256H359V736H820Q902 736 962 756T1060 813T1117 898T1136 1004ZM1164 0L798 585H359V0H168V1409H831Q951 1409 1043 1382T1199 1302T1295 1175T1328
1006Q1328 939 1309 874T1247 755T1140 662T984 607L1384 0H1164Z" />
<glyph unicode="S" glyph-name="S" horiz-adv-x="1366" d="M1272 389Q1272 300 1238 225T1131 96T950 11T690 -20Q427 -20 280 72T93 338L278 375Q292 320 321 275T399 198T522 147T697 129Q782 129 853 143T975 188T1054 265T1083 379Q1083 448 1052 491T963
562T827 609L652 650Q576 667 534 678Q474 694 420 715T317 766T234 835T179 929T159 1053Q159 1153 199 1224T312 1342T482 1409T694 1430Q825 1430 918 1410T1075 1348T1177 1247T1239 1106L1051 1073Q1037 1124 1011 1164T941 1231T837 1272T692 1286Q594 1286
528 1269T421 1221T363 1151T345 1063Q345 1000 376 960T462 892T587 847Q638 834 738 811L868 780Q932 765 991 744T1101 693T1191 622T1250 523T1272 389Z" />
<glyph unicode="T" glyph-name="T" horiz-adv-x="1251" d="M720 1253V0H530V1253H46V1409H1204V1253H720Z" />
<glyph unicode="U" glyph-name="U" horiz-adv-x="1479" d="M731 -20Q615 -20 511 11T329 107T204 273T158 512V1409H349V528Q349 421 377 347T457 225T577 157T730 135Q812 135 885 157T1013 227T1099 352T1131 541V1409H1321V530Q1321 389 1275 286T1148 114T961
13T731 -20Z" />
<glyph unicode="V" glyph-name="V" horiz-adv-x="1366" d="M782 0H584L9 1409H210L600 417L630 328L657 248L684 168L710 246L736 325L768 417L1156 1409H1357L782 0Z" />
<glyph unicode="W" glyph-name="W" horiz-adv-x="1933" d="M1511 0H1283L1039 895Q1028 933 1016 985Q1006 1026 993 1084L969 1196L944 1083L921 984Q909 933 898 895L652 0H424L9 1409H208L461 514L494 389Q509 327 520 278L544 168L575 304Q582 332 589 363T604
424L618 482L632 532L877 1409H1060L1305 532L1318 482L1334 424Q1341 395 1348 364T1362 305Q1378 238 1393 168Q1394 168 1402 202L1422 289L1448 402Q1460 448 1478 514L1727 1409H1926L1511 0Z" />
<glyph unicode="X" glyph-name="X" horiz-adv-x="1366" d="M1112 0L689 616L257 0H46L582 732L87 1409H298L690 856L1071 1409H1282L800 739L1323 0H1112Z" />
<glyph unicode="Y" glyph-name="Y" horiz-adv-x="1366" d="M777 584V0H587V584L45 1409H255L684 738L1111 1409H1321L777 584Z" />
<glyph unicode="Z" glyph-name="Z" horiz-adv-x="1251" d="M1187 0H65V143L923 1253H138V1409H1140V1270L282 156H1187V0Z" />
<glyph unicode="[" glyph-name="bracketleft" horiz-adv-x="569" d="M146 -425V1484H553V1355H320V-296H553V-425H146Z" />
<glyph unicode="\" glyph-name="backslash" horiz-adv-x="569" d="M407 -20L0 1484H158L569 -20H407Z" />
<glyph unicode="]" glyph-name="bracketright" horiz-adv-x="569" d="M16 -425V-296H249V1355H16V1484H423V-425H16Z" />
<glyph unicode="^" glyph-name="asciicircum" horiz-adv-x="961" d="M787 673L478 1306L172 673H10L378 1409H581L951 673H787Z" />
<glyph unicode="_" glyph-name="underscore" horiz-adv-x="1139" d="M-31 -407V-277H1162V-407H-31Z" />
<glyph unicode="`" glyph-name="grave" horiz-adv-x="682" d="M436 1201L106 1479V1508H313L530 1221V1201H436Z" />
<glyph unicode="a" glyph-name="a" horiz-adv-x="1139" d="M455 115Q541 115 605 146T712 227T776 334T797 445V534L600 530Q531 529 474 520Q415 512 370 487T299 417T272 299Q272 211 319 163T455 115ZM414 -20Q251 -20 169 66T87 302Q87 409 127 477T233 585T383
639T554 656L797 660V719Q797 786 783 833T740 909T668 951T565 965Q513 965 471 958T398 931T348 878T323 793L135 810Q145 874 173 927T252 1020T381 1080T569 1102Q773 1102 876 1009T979 738V272Q979 192 1000 152T1080 111Q1095 111 1110 113T1139 118V6Q1105
-2 1072 -6T1000 -10Q949 -10 913 3T853 44T818 112T803 207H797Q768 155 734 113T653 42T549 -4T414 -20Z" />
<glyph unicode="b" glyph-name="b" horiz-adv-x="1139" d="M864 540Q864 652 850 732T805 863T726 939T609 963Q538 963 484 940T393 866T337 732T318 529Q318 413 337 334T392 206T483 135T607 113Q673 113 721 136T801 210T848 342T864 540ZM1053 546Q1053 -20
655 -20Q532 -20 451 24T318 168H316Q316 142 315 114T312 62T309 21T306 0H132Q133 9 134 30T136 82T137 148T138 223V1484H318V1061Q318 1031 318 1004Q317 983 316 955Q315 930 314 908H318Q368 1012 450 1057T655 1102Q860 1102 956 964T1053 546Z" />
<glyph unicode="c" glyph-name="c" horiz-adv-x="1024" d="M275 546Q275 453 288 375T334 241T418 153T548 122Q644 122 708 174T788 334L970 322Q961 255 931 193T850 84T724 9T553 -20Q426 -20 337 23T193 141T112 319T87 542Q87 651 105 734T155 880T232 985T327
1053T436 1090T551 1102Q642 1102 713 1077T835 1009T919 906T964 779L779 765Q765 855 708 908T546 961Q469 961 418 936T334 859T289 729T275 546Z" />
<glyph unicode="d" glyph-name="d" horiz-adv-x="1139" d="M275 542Q275 430 289 350T334 219T413 143T530 119Q601 119 655 142T746 216T802 351T821 554Q821 669 802 748T746 877T656 947T532 969Q466 969 418 946T338 872T291 740T275 542ZM821 174Q771 70
689 25T484 -20Q279 -20 183 118T86 536Q86 1102 484 1102Q607 1102 689 1057T821 914H823Q823 924 822 946V990Q821 1014 821 1035V1065V1484H1001V223Q1001 184 1001 148T1003 82T1005 31T1007 0H835Q833 10 832 28T829 71T826 121T825 174H821Z" />
<glyph unicode="e" glyph-name="e" horiz-adv-x="1139" d="M862 641Q847 812 775 890T568 969Q523 969 474 955T382 903T311 803T278 641H862ZM276 503Q276 418 293 347T347 224T441 144T578 115Q695 115 765 162T861 281L1019 236Q1002 191 972 146T890 64T763
4T578 -20Q338 -20 213 123T87 548Q87 700 125 805T229 977T383 1072T571 1102Q707 1102 798 1058T945 937T1024 754T1048 527V503H276Z" />
<glyph unicode="f" glyph-name="f" horiz-adv-x="569" d="M361 951V0H181V951H29V1082H181V1204Q181 1263 192 1313T232 1401T313 1460T445 1482Q477 1482 511 1479T572 1470V1333Q555 1336 533 1338T492 1341Q452 1341 427 1330T387 1299T367 1248T361 1179V1082H572V951H361Z"
/>
<glyph unicode="g" glyph-name="g" horiz-adv-x="1139" d="M822 541Q822 654 798 734T733 866T642 941T536 965Q467 965 418 941T336 866T288 734T272 541Q272 424 287 345T335 216T416 146T533 125Q587 125 638 148T731 221T797 350T822 541ZM548 -425Q455 -425
383 -406T260 -352T177 -267T131 -158L312 -132Q330 -207 391 -247T553 -288Q614 -288 664 -271T749 -217T803 -119T822 27V201H820Q800 160 771 123T699 56T600 10T472 -8Q369 -8 296 26T176 130T108 301T86 539Q86 669 107 773T177 949T303 1060T492 1099Q607
1099 691 1047T822 897H824Q824 922 825 953T828 1011T832 1059T836 1082H1007Q1006 1073 1005 1052T1003 1000T1002 934T1001 858V31Q1001 -196 890 -310T548 -425Z" />
<glyph unicode="h" glyph-name="h" horiz-adv-x="1139" d="M317 897Q347 952 382 990T459 1054T551 1090T663 1102Q767 1102 833 1074T938 996T991 875T1006 721V0H825V686Q825 755 817 807T784 893T716 945T602 963Q538 963 487 940T399 875T342 773T322 638V0H142V1484H322V1098Q322
1065 321 1032T318 971L316 924Q315 904 314 897H317Z" />
<glyph unicode="i" glyph-name="i" horiz-adv-x="455" d="M137 0V1082H317V0H137ZM137 1312V1484H317V1312H137Z" />
<glyph unicode="j" glyph-name="j" horiz-adv-x="455" d="M317 -134Q317 -196 307 -249T269 -341T196 -402T77 -425Q43 -425 11 -423T-50 -416V-277Q-37 -279 -19 -281T12 -283Q50 -283 74 -273T113 -242T132 -187T137 -107V1082H317V-134ZM137 1312V1484H317V1312H137Z" />
<glyph unicode="k" glyph-name="k" horiz-adv-x="1024" d="M816 0L450 494L318 385V0H138V1484H318V557L793 1082H1004L565 617L1027 0H816Z" />
<glyph unicode="l" glyph-name="l" horiz-adv-x="455" d="M138 0V1484H318V0H138Z" />
<glyph unicode="m" glyph-name="m" horiz-adv-x="1706" d="M768 0V686Q768 765 758 818T725 903T663 949T570 963Q513 963 467 941T389 876T339 771T321 627V0H142V851Q142 885 142 922T140 993T138 1051T136 1082H306Q307 1077 308 1055T310 1005T313 947T314
897H317Q341 944 369 982T434 1046T520 1087T633 1102Q756 1102 827 1053T927 897H930Q954 944 984 982T1054 1046T1144 1087T1258 1102Q1340 1102 1399 1080T1497 1012T1553 894T1571 721V0H1393V686Q1393 765 1383 818T1350 903T1288 949T1195 963Q1138 963 1092
942T1014 878T964 773T946 627V0H768Z" />
<glyph unicode="n" glyph-name="n" horiz-adv-x="1139" d="M825 0V686Q825 765 814 818T776 903T708 949T602 963Q538 963 487 941T399 876T342 771T322 627V0H142V851Q142 885 142 922T140 993T138 1051T136 1082H306Q307 1077 308 1055T310 1005T313 947T314
897H317Q343 944 374 982T446 1046T540 1087T663 1102Q753 1102 818 1080T925 1012T986 894T1006 721V0H825Z" />
<glyph unicode="o" glyph-name="o" horiz-adv-x="1139" d="M864 416T864 542T845 750T788 881T696 949T574 969Q505 969 450 949T355 879T296 747T275 542Q275 416 297 334T357 202T448 133T563 113Q632 113 688 132T783 201T843 333ZM1053 542Q1053 258 928 119T565
-20Q452 -20 363 14T213 118T119 293T86 542Q86 1102 571 1102Q697 1102 788 1067T938 962T1025 787T1053 542Z" />
<glyph unicode="p" glyph-name="p" horiz-adv-x="1139" d="M864 542Q864 642 852 720T811 852T732 934T609 962Q549 962 496 945T404 880T341 748T318 528Q318 413 337 334T392 205T483 135T607 113Q682 113 731 142T810 226T852 360T864 542ZM1053 546Q1053 423
1033 319T967 140T844 23T655 -20Q539 -20 452 24T319 168H314Q315 166 315 150T316 110T317 57T318 -2V-425H138V861Q138 900 138 936T136 1001T134 1052T132 1082H306Q307 1079 308 1061T311 1018T314 963T316 908H320Q345 960 377 996T450 1056T541 1090T655
1101Q767 1101 843 1061T966 949T1033 774T1053 546Z" />
<glyph unicode="q" glyph-name="q" horiz-adv-x="1139" d="M821 554Q821 672 801 752T743 880T652 948T532 969Q463 969 414 944T335 866T290 733T275 542Q275 434 288 354T332 222T411 145T530 119Q590 119 643 137T735 204T798 337T821 554ZM484 -20Q278 -20
182 119T86 536Q86 818 184 960T484 1102Q551 1102 602 1090T694 1055T765 996T821 914H823Q823 939 824 969T827 1027T831 1073T835 1096H1008Q1006 1079 1004 1007T1001 801V-425H821V14Q821 40 822 68Q822 90 823 121L825 178H823Q797 127 766 90T693 28T601
-8T484 -20Z" />
<glyph unicode="r" glyph-name="r" horiz-adv-x="682" d="M142 0V830Q142 864 142 899T140 968T138 1030T136 1082H306Q307 1059 308 1030L312 969Q313 938 313 910T314 861H318Q337 923 358 968T409 1043T478 1087T575 1102Q597 1102 617 1099T648 1092V927Q630
932 606 934T552 937Q490 937 447 909T376 832T335 714T322 564V0H142Z" />
<glyph unicode="s" glyph-name="s" horiz-adv-x="1024" d="M950 299Q950 223 921 164T835 64T698 2T511 -20Q417 -20 342 -6T209 41T114 125T57 254L216 285Q239 198 311 158T511 117Q569 117 617 125T701 152T755 204T775 285Q775 334 752 365T688 418T588 454L460
489Q384 510 331 527Q267 548 216 582T132 668T100 796Q100 944 205 1021T513 1099Q692 1099 797 1036T931 834L769 814Q760 856 736 884T678 930T602 955T513 963Q391 963 333 926T275 814Q275 770 296 742T356 694T449 660L568 629L656 606Q701 593 743 576T823
535T889 478T933 401T950 299Z" />
<glyph unicode="t" glyph-name="t" horiz-adv-x="569" d="M554 8Q513 -3 471 -9T372 -16Q156 -16 156 229V951H31V1082H163L216 1324H336V1082H536V951H336V268Q336 190 361 159T450 127Q476 127 500 131T554 141V8Z" />
<glyph unicode="u" glyph-name="u" horiz-adv-x="1139" d="M314 1082V396Q314 317 325 264T363 179T431 133T537 119Q601 119 652 141T740 206T797 311T817 455V1082H997V231Q997 197 997 160T999 89T1001 31T1003 0H833Q832 5 831 27T829 77T826 135T825 185H822Q796
138 765 100T693 36T599 -5T476 -20Q386 -20 321 2T214 70T153 188T133 361V1082H314Z" />
<glyph unicode="v" glyph-name="v" horiz-adv-x="1024" d="M613 0H400L7 1082H199L437 378L454 324L473 259L492 194L506 141L522 194L541 258L562 322L580 376L826 1082H1017L613 0Z" />
<glyph unicode="w" glyph-name="w" horiz-adv-x="1479" d="M1174 0H965L792 698Q784 725 776 765L759 843Q749 887 740 934Q731 889 721 845Q713 807 704 766Q694 727 686 694L508 0H300L-3 1082H175L358 347Q365 324 372 290L386 225L401 149Q409 187 418 223L434
286Q442 318 448 339L644 1082H837L1026 339Q1033 313 1041 280L1056 218L1072 149L1088 223L1102 288Q1108 314 1117 347L1308 1082H1484L1174 0Z" />
<glyph unicode="x" glyph-name="x" horiz-adv-x="1024" d="M801 0L510 444L217 0H23L408 556L41 1082H240L510 661L778 1082H979L612 558L1002 0H801Z" />
<glyph unicode="y" glyph-name="y" horiz-adv-x="1024" d="M604 0Q566 -98 527 -176T438 -310T329 -395T191 -425Q157 -425 128 -423T67 -414V-279Q86 -282 110 -283T151 -285Q230 -285 298 -226T417 -38L434 5L5 1082H197L425 484L450 412L482 322L509 241Q521
205 523 196Q526 207 538 240L564 312L593 393L618 464L830 1082H1020L604 0Z" />
<glyph unicode="z" glyph-name="z" horiz-adv-x="1024" d="M49 0V137L710 943H89V1082H913V945L251 139H950V0H49Z" />
<glyph unicode="{" glyph-name="braceleft" horiz-adv-x="684" d="M513 -425Q448 -425 399 -405T316 -346T266 -254T249 -132V229Q249 292 235 336T193 408T125 450T34 466V593Q85 595 125 609T192 651T234 723T249 829V1191Q249 1332 315 1408T513 1484H648V1355H585Q494
1355 456 1302T417 1140V784Q417 734 402 692T361 618T300 564T223 532V530Q266 520 301 498T362 444T402 369T417 276V-81Q417 -187 455 -241T585 -296H648V-425H513Z" />
<glyph unicode="|" glyph-name="bar" horiz-adv-x="532" d="M183 -434V1484H349V-434H183Z" />
<glyph unicode="}" glyph-name="braceright" horiz-adv-x="684" d="M94 -296Q185 -296 224 -242T264 -81V276Q264 327 278 369T317 443T378 498T457 530V532Q415 542 380 564T319 618T279 692T264 784V1140Q264 1248 225 1301T94 1355H34V1484H166Q297 1484 363
1408T430 1191V829Q430 767 444 723T486 651T554 609T647 593V466Q595 464 555 450T487 408T445 336T430 229V-132Q430 -200 413 -254T363 -346T281 -404T166 -425H34V-296H94Z" />
<glyph unicode="~" glyph-name="asciitilde" horiz-adv-x="1196" d="M844 553Q775 553 702 575Q642 593 557 623Q428 668 340 668Q302 668 270 662T207 645T149 617T92 580V723Q142 761 208 784T355 807Q395 807 435 801T513 784T590 761L664 735Q685 727 710
720L760 705Q786 698 811 694T860 690Q929 690 990 715T1104 782V633Q1072 610 1043 595T983 571T918 557T844 553Z" />
<glyph unicode="&#xa0;" glyph-name="space" horiz-adv-x="569" />
<glyph unicode="&#xa1;" glyph-name="exclamdown" horiz-adv-x="682" d="M440 1082V881H246V1082H440ZM266 685H414L438 -327H242L266 685Z" />
<glyph unicode="&#xa2;" glyph-name="cent" horiz-adv-x="1139" d="M596 277Q692 277 756 329T836 489L1018 477Q1010 415 985 357T915 253T808 176T662 137V-31H538V137Q427 147 350 193T226 314T157 486T135 697Q135 847 168 950T256 1118T385 1215T538 1254V1409H662V1254Q740
1246 800 1219T903 1149T973 1052T1012 934L827 920Q813 1010 756 1063T594 1116Q517 1116 466 1091T382 1014T337 884T323 701Q323 608 336 530T382 396T466 308T596 277Z" />
<glyph unicode="&#xa3;" glyph-name="sterling" horiz-adv-x="1139" d="M1104 311Q1095 231 1067 173T994 76T892 19T767 0H69V154Q158 200 201 280T244 481V625H58V754H244V1034Q244 1126 268 1199T341 1324T467 1402T646 1430Q716 1430 777 1416T888 1372T973
1300T1027 1200L853 1143Q843 1174 824 1200T778 1244T719 1272T650 1282Q536 1282 480 1225T424 1042V754H832V625H424V499Q424 443 413 390T380 291T327 210T255 153H738Q776 153 809 162T869 193T914 247T941 329L1104 311Z" />
<glyph unicode="&#xa4;" glyph-name="currency" horiz-adv-x="1139" d="M291 744T291 686T313 577T373 488T463 428T572 406Q629 406 680 428T769 488T830 577T852 686T830 795T770 884T680 944T572 967Q514 967 463 945T374 884T313 795ZM137 613T137 684T157
818T215 936L115 1036L219 1139L318 1038Q372 1077 435 1098T572 1120Q643 1120 706 1099T823 1040L920 1137L1024 1032L928 936Q965 882 986 819T1008 684T986 549T926 432L1026 332L924 227L823 328Q769 291 706 271T572 250Q500 250 436 271T320 330L215 225L113
330L215 432Q178 486 158 549Z" />
<glyph unicode="&#xa5;" glyph-name="yen" horiz-adv-x="1139" d="M720 709H1041V584H658V430H1041V303H658V0H480V303H99V430H480L482 584H99V709H419L-2 1409H197L568 762L943 1409H1142L720 709Z" />
<glyph unicode="&#xa6;" glyph-name="brokenbar" horiz-adv-x="532" d="M183 -434V345H349V-434H183ZM183 706V1484H349V706H183Z" />
<glyph unicode="&#xa7;" glyph-name="section" horiz-adv-x="1139" d="M866 663Q866 711 840 745T769 805T669 848T551 880Q493 877 449 861T374 818T329 758T313 684Q313 638 337 605T403 548T498 507T612 475Q666 476 712 488T793 523T846 582T866 663ZM588
1484Q667 1484 736 1469T859 1423T949 1342T1001 1224L840 1204Q832 1249 809 1278T752 1324T676 1347T588 1354Q463 1354 399 1315T334 1204Q334 1159 359 1127T425 1072T521 1033T635 1003Q704 987 772 964Q842 941 898 905T989 815T1024 686Q1024 641 1010 598T969
518T900 454T805 413Q854 392 893 367T960 309T1003 237T1018 145Q1018 72 989 14T904 -86T766 -150T577 -172Q484 -172 407 -159T272 -113T174 -29T115 100L276 131Q288 76 315 43T381 -9T470 -34T577 -41Q635 -41 686 -32T775 -3T835 49T858 129Q858 183 830
219T754 280T645 324T518 358Q453 373 388 396T270 455T186 544T153 671Q153 716 169 757T214 834T286 896T381 938Q339 952 302 975T236 1030T191 1102T174 1190Q174 1329 279 1406T588 1484Z" />
<glyph unicode="&#xa8;" glyph-name="dieresis" horiz-adv-x="682" d="M45 1219V1403H210V1219H45ZM439 1219V1403H602V1219H439Z" />
<glyph unicode="&#xa9;" glyph-name="copyright" horiz-adv-x="1509" d="M498 781T498 709T514 577T564 474T648 407T765 383Q814 383 851 396T917 432T964 482T998 539L1113 504Q1091 461 1062 421T992 349T896 298T765 279Q664 279 590 311T466 400T393 536T369
709Q369 806 393 884T465 1018T587 1103T758 1133Q833 1133 889 1115T985 1068T1052 1001T1098 924L984 891Q972 917 953 942T907 986T843 1016T760 1028Q691 1028 642 1005T560 941T513 840ZM1385 707Q1385 793 1363 873T1299 1023T1200 1150T1072 1249T922 1312T754
1335Q624 1335 510 1286T311 1151T176 951T126 707Q126 576 175 462T310 262T510 127T754 78Q841 78 921 100T1072 163T1200 261T1299 389T1362 539T1385 707ZM1477 707Q1477 607 1451 515T1378 342T1266 196T1120 83T947 10T754 -16Q655 -16 563 10T390 83T244
195T130 341T57 514T31 707T57 899T130 1071T243 1218T389 1331T562 1404T754 1430Q904 1430 1035 1373T1265 1218T1420 989T1477 707Z" />
<glyph unicode="&#xaa;" glyph-name="ordfeminine" horiz-adv-x="758" d="M299 762Q347 762 387 779T455 823T500 886T516 959V1024L378 1020Q337 1018 300 1013T236 993T192 952T176 883Q176 827 205 795T299 762ZM260 651Q207 651 164 665T90 708T43 777T26
870Q26 939 51 985T120 1059T220 1099Q274 1111 338 1112L516 1116V1176Q516 1222 506 1252T476 1299T428 1324T365 1331Q298 1331 258 1302T208 1196L59 1206Q66 1253 87 1294T146 1366T238 1414T363 1432Q431 1432 485 1418T578 1373T638 1296T659 1182V874Q659
816 673 791T722 766Q734 766 745 768T765 774V670Q746 665 725 661T682 657Q641 657 613 668T565 698T536 743T524 798H520Q482 721 416 686T260 651Z" />
<glyph unicode="&#xab;" glyph-name="guillemotleft" horiz-adv-x="1139" d="M419 141L83 506V569L419 940H586V909L251 537L588 170V141H419ZM886 141L548 506V569L886 940H1054V909L716 537L1056 170V141H886Z" />
<glyph unicode="&#xac;" glyph-name="logicalnot" horiz-adv-x="1196" d="M950 180V608H100V754H1095V180H950Z" />
<glyph unicode="&#xad;" glyph-name="hyphen" horiz-adv-x="682" d="M91 464V624H591V464H91Z" />
<glyph unicode="&#xae;" glyph-name="registered" horiz-adv-x="1509" d="M941 881Q941 950 894 986T765 1022H595V721H777Q857 721 899 763T941 881ZM955 289L756 625H595V289H468V1120H775Q917 1120 992 1057T1068 883Q1068 781 1016 720T879 639L1100 289H955ZM1385
707Q1385 793 1363 873T1299 1023T1200 1150T1072 1249T922 1312T754 1335Q624 1335 510 1286T311 1151T176 951T126 707Q126 576 175 462T310 262T510 127T754 78Q841 78 921 100T1072 163T1200 261T1299 389T1362 539T1385 707ZM1477 707Q1477 607 1451 515T1378
342T1266 196T1120 83T947 10T754 -16Q655 -16 563 10T390 83T244 195T130 341T57 514T31 707T57 899T130 1071T243 1218T389 1331T562 1404T754 1430Q904 1430 1035 1373T1265 1218T1420 989T1477 707Z" />
<glyph unicode="&#xaf;" glyph-name="overscore" horiz-adv-x="1131" d="M1148 1452H-17V1546H1148V1452Z" />
<glyph unicode="&#xb0;" glyph-name="degree" horiz-adv-x="819" d="M587 1108T587 1145T574 1215T536 1272T480 1311T409 1325Q372 1325 340 1311T283 1273T245 1215T231 1145T245 1076T283 1019T339 980T409 965Q447 965 479 979T536 1018T573 1075ZM696 1145Q696
1086 674 1034T612 944T521 883T409 860T298 882T207 943T145 1034T122 1145Q122 1205 145 1257T207 1347T298 1408T409 1430T520 1408T612 1348T673 1257T696 1145Z" />
<glyph unicode="&#xb1;" glyph-name="plusminus" horiz-adv-x="1124" d="M65 0V145H1060V0H65ZM636 680V285H489V680H65V825H489V1219H636V825H1060V680H636Z" />
<glyph unicode="&#xb2;" glyph-name="uni00B2" horiz-adv-x="682" d="M43 563L41 666Q68 727 112 775T206 863T307 940T400 1012T467 1089T493 1178Q493 1240 458 1277T348 1315Q280 1315 236 1279T184 1174L51 1182Q57 1233 80 1276T141 1352T232 1402T354 1421Q419
1421 470 1405T557 1358T611 1285T630 1188Q630 1126 603 1076T535 983T442 902L344 828Q296 792 257 755T200 676H643V563H43Z" />
<glyph unicode="&#xb3;" glyph-name="uni00B3" horiz-adv-x="682" d="M642 795Q642 679 565 615T345 551Q258 551 200 570T106 622T51 694T27 778L163 791Q172 724 216 690T345 655Q422 655 463 691T505 803Q505 848 487 875T440 916T379 935T316 940H255V1049H312Q341
1049 371 1055T427 1077T468 1119T484 1186Q484 1246 447 1280T339 1315Q271 1315 229 1280T181 1180L46 1192Q53 1250 78 1293T142 1364T233 1407T343 1421Q412 1421 464 1405T551 1359T603 1290T621 1204Q621 1129 578 1074T445 999V997Q497 992 534 974T596
928T631 867T642 795Z" />
<glyph unicode="&#xb4;" glyph-name="acute" horiz-adv-x="682" d="M72 1201V1221L289 1508H496V1479L166 1201H72Z" />
<glyph unicode="&#xb5;" glyph-name="mu" horiz-adv-x="1180" d="M140 -425V1082H321V396Q321 318 337 265T382 180T453 133T547 119Q675 119 748 206T821 455V1082H1001V266Q1001 222 1006 194T1022 150T1046 128T1079 121Q1090 121 1106 123T1133 129V0Q1107
-8 1082 -14T1020 -20Q966 -20 931 -5T873 36T841 97T829 174H826Q774 79 701 30T527 -20Q460 -20 406 0T320 59V-425H140Z" />
<glyph unicode="&#xb6;" glyph-name="paragraph" horiz-adv-x="1100" d="M884 1307V-264H772V1307H555V-264H442V694Q362 694 296 716T181 783T107 893T80 1049Q80 1133 105 1199T177 1312T294 1384T450 1409H1013V1307H884Z" />
<glyph unicode="&#xb7;" glyph-name="middot" horiz-adv-x="569" d="M187 446V666H382V446H187Z" />
<glyph unicode="&#xb8;" glyph-name="cedilla" horiz-adv-x="682" d="M483 -253Q483 -294 468 -327T421 -385T336 -421T209 -434Q189 -434 167 -434T119 -430V-332Q168 -338 205 -338Q246 -338 274 -332T319 -316T344 -290T352 -257Q352 -220 322 -200T219 -180H190Q176
-180 162 -182L227 0H334L295 -100Q389 -103 436 -143T483 -253Z" />
<glyph unicode="&#xb9;" glyph-name="uni00B9" horiz-adv-x="682" d="M80 563V670H291V1290L89 1152V1272L299 1409H422V670H637V563H80Z" />
<glyph unicode="&#xba;" glyph-name="ordmasculine" horiz-adv-x="748" d="M574 1042Q574 1125 562 1180T524 1267T463 1313T379 1327T294 1314T231 1267T192 1179T179 1042Q179 958 193 903T232 815T293 769T371 756Q420 756 457 769T521 815T560 903T574 1042ZM723
1042Q723 854 635 753T372 651Q204 651 116 751T27 1042Q27 1133 48 1205T113 1328T222 1405T376 1432Q469 1432 534 1406T642 1329T703 1207T723 1042Z" />
<glyph unicode="&#xbb;" glyph-name="guillemotright" horiz-adv-x="1139" d="M253 141H83V170L421 537L85 909V940H253L588 569V506L253 141ZM718 141H550V170L888 537L552 909V940H718L1056 569V506L718 141Z" />
<glyph unicode="&#xbc;" glyph-name="onequarter" horiz-adv-x="1708" d="M312 563V670H523V1290L321 1152V1272L531 1409H654V670H869V563H312ZM493 0H345L1226 1409H1371L493 0ZM1374 715Q1367 702 1356 683L1333 645L1310 609L1292 580L1093 293H1372V582V615V653Q1372
672 1372 689T1374 715ZM1503 180V2H1372V180H966V291L1352 848H1503V293H1614V180H1503Z" />
<glyph unicode="&#xbd;" glyph-name="onehalf" horiz-adv-x="1708" d="M312 563V670H523V1290L321 1152V1272L531 1409H654V670H869V563H312ZM493 0H345L1226 1409H1371L493 0ZM1053 2L1051 105Q1078 166 1122 214T1216 302T1317 379T1410 451T1477 528T1503 617Q1503
679 1468 716T1358 754Q1290 754 1246 718T1194 613L1061 621Q1067 672 1090 715T1151 791T1242 841T1364 860Q1429 860 1480 844T1567 797T1621 724T1640 627Q1640 565 1613 515T1545 422T1452 341L1354 267Q1306 231 1267 194T1210 115H1653V2H1053Z" />
<glyph unicode="&#xbe;" glyph-name="threequarters" horiz-adv-x="1708" d="M513 0H365L1246 1409H1391L513 0ZM1374 715Q1367 702 1356 683L1333 645L1310 609L1292 580L1093 293H1372V582V615V653Q1372 672 1372 689T1374 715ZM1503 180V2H1372V180H966V291L1352
848H1503V293H1614V180H1503ZM688 795Q688 679 611 615T391 551Q304 551 246 570T152 622T97 694T73 778L209 791Q218 724 262 690T391 655Q468 655 509 691T551 803Q551 848 533 875T486 916T425 935T362 940H301V1049H358Q387 1049 417 1055T473 1077T514 1119T530
1186Q530 1246 493 1280T385 1315Q317 1315 275 1280T227 1180L92 1192Q99 1250 124 1293T188 1364T279 1407T389 1421Q458 1421 510 1405T597 1359T649 1290T667 1204Q667 1129 624 1074T491 999V997Q543 992 580 974T642 928T677 867T688 795Z" />
<glyph unicode="&#xbf;" glyph-name="questiondown" horiz-adv-x="1251" d="M756 1082V881H561V1082H756ZM131 50Q131 121 149 175T199 271T269 347T350 411L430 470Q470 499 501 533T552 608T573 705H748Q746 636 727 584T676 492T606 421T527 360L448 304Q410
275 380 240T332 161T313 58T334 -47T393 -124T486 -172T608 -188Q748 -188 830 -118T926 74L1110 62Q1099 -22 1066 -96T972 -227T822 -315T610 -348Q496 -348 407 -320T257 -241T163 -116T131 50Z" />
<glyph unicode="&#xc0;" glyph-name="Agrave" horiz-adv-x="1366" d="M768 1026Q748 1078 738 1107L712 1182L694 1238Q686 1260 685 1265Q683 1260 676 1237T658 1180L632 1105L602 1024L422 561H949L768 1026ZM1167 0L1006 412H364L202 0H4L579 1409H796L1362
0H1167ZM750 1530L440 1747V1776H647L864 1550V1530H750Z" />
<glyph unicode="&#xc1;" glyph-name="Aacute" horiz-adv-x="1366" d="M768 1026Q748 1078 738 1107L712 1182L694 1238Q686 1260 685 1265Q683 1260 676 1237T658 1180L632 1105L602 1024L422 561H949L768 1026ZM1167 0L1006 412H364L202 0H4L579 1409H796L1362
0H1167ZM547 1530V1550L764 1776H971V1747L661 1530H547Z" />
<glyph unicode="&#xc2;" glyph-name="Acircumflex" horiz-adv-x="1366" d="M768 1026Q748 1078 738 1107L712 1182L694 1238Q686 1260 685 1265Q683 1260 676 1237T658 1180L632 1105L602 1024L422 561H949L768 1026ZM1167 0L1006 412H364L202 0H4L579 1409H796L1362
0H1167ZM1014 1550V1530H909L690 1669H688L456 1530H352V1550L586 1790H790L1014 1550Z" />
<glyph unicode="&#xc3;" glyph-name="Atilde" horiz-adv-x="1366" d="M768 1026Q748 1078 738 1107L712 1182L694 1238Q686 1260 685 1265Q683 1260 676 1237T658 1180L632 1105L602 1024L422 561H949L768 1026ZM1167 0L1006 412H364L202 0H4L579 1409H796L1362
0H1167ZM842 1530Q800 1530 758 1548T677 1589T603 1630T536 1649Q481 1649 454 1618T418 1530H327Q332 1575 342 1622T374 1709T434 1773T530 1798Q574 1798 616 1780T697 1738L770 1698Q805 1679 835 1679Q889 1679 916 1710T952 1798H1044Q1039 1754 1029 1707T998
1620T939 1556T842 1530Z" />
<glyph unicode="&#xc4;" glyph-name="Adieresis" horiz-adv-x="1366" d="M768 1026Q748 1078 738 1107L712 1182L694 1238Q686 1260 685 1265Q683 1260 676 1237T658 1180L632 1105L602 1024L422 561H949L768 1026ZM1167 0L1006 412H364L202 0H4L579 1409H796L1362
0H1167ZM409 1530V1714H574V1530H409ZM803 1530V1714H966V1530H803Z" />
<glyph unicode="&#xc5;" glyph-name="Aring" horiz-adv-x="1366" d="M768 1026Q748 1078 738 1107L712 1182L694 1238Q686 1260 685 1265Q683 1260 676 1237T658 1180L632 1105L602 1024L422 561H949L768 1026ZM1167 0L1006 412H364L202 0H4L579 1409H796L1362
0H1167ZM820 1546Q820 1574 810 1598T781 1641T739 1669T686 1680Q657 1680 633 1670T590 1641T562 1599T551 1546Q551 1517 561 1493T590 1449T632 1420T686 1409Q714 1409 738 1419T781 1449T809 1492T820 1546ZM928 1596T928 1546T909 1452T857 1375T780 1323T686
1304T592 1323T515 1375T463 1452T444 1546T463 1640T515 1716T592 1768T686 1787T780 1768T857 1717T909 1640Z" />
<glyph unicode="&#xc6;" glyph-name="AE" horiz-adv-x="2048" d="M969 1262H818Q817 1259 809 1242L790 1199L766 1145L740 1090L719 1046Q710 1027 708 1022L491 561H969V1262ZM969 0V412H421L223 0H24L710 1409H1919V1253H1160V801H1859V647H1160V156H1960V0H969Z" />
<glyph unicode="&#xc7;" glyph-name="Ccedilla" horiz-adv-x="1479" d="M792 1274Q672 1274 580 1234T425 1120T330 942T298 711T332 479T431 297T589 179T800 137Q882 137 949 158T1071 219T1169 311T1245 430L1401 352Q1363 273 1307 205T1176 87T1005 9T791
-20Q620 -20 492 34T277 186T147 418T104 711Q104 876 149 1009T282 1235T498 1379T790 1430Q1015 1430 1166 1342T1388 1081L1207 1021Q1187 1071 1153 1116T1068 1197T949 1253T792 1274ZM993 -253Q993 -294 978 -327T931 -385T846 -421T719 -434Q699 -434 677
-434T629 -430V-332Q678 -338 715 -338Q756 -338 784 -332T829 -316T854 -290T862 -257Q862 -220 832 -200T729 -180H700Q686 -180 672 -182L737 0H844L805 -100Q899 -103 946 -143T993 -253Z" />
<glyph unicode="&#xc8;" glyph-name="Egrave" horiz-adv-x="1366" d="M168 0V1409H1237V1253H359V801H1177V647H359V156H1278V0H168ZM735 1530L425 1747V1776H632L849 1550V1530H735Z" />
<glyph unicode="&#xc9;" glyph-name="Eacute" horiz-adv-x="1366" d="M168 0V1409H1237V1253H359V801H1177V647H359V156H1278V0H168ZM551 1530V1550L768 1776H975V1747L665 1530H551Z" />
<glyph unicode="&#xca;" glyph-name="Ecircumflex" horiz-adv-x="1366" d="M168 0V1409H1237V1253H359V801H1177V647H359V156H1278V0H168ZM1037 1550V1530H932L713 1669H711L479 1530H375V1550L609 1790H813L1037 1550Z" />
<glyph unicode="&#xcb;" glyph-name="Edieresis" horiz-adv-x="1366" d="M168 0V1409H1237V1253H359V801H1177V647H359V156H1278V0H168ZM422 1530V1714H587V1530H422ZM816 1530V1714H979V1530H816Z" />
<glyph unicode="&#xcc;" glyph-name="Igrave" horiz-adv-x="569" d="M189 0V1409H380V0H189ZM575 1530L265 1747V1776H472L689 1550V1530H575Z" />
<glyph unicode="&#xcd;" glyph-name="Iacute" horiz-adv-x="569" d="M189 0V1409H380V0H189ZM142 1530V1550L359 1776H566V1747L256 1530H142Z" />
<glyph unicode="&#xce;" glyph-name="Icircumflex" horiz-adv-x="569" d="M189 0V1409H380V0H189ZM872 1550V1530H767L548 1669H546L314 1530H210V1550L444 1790H648L872 1550Z" />
<glyph unicode="&#xcf;" glyph-name="Idieresis" horiz-adv-x="569" d="M189 0V1409H380V0H189ZM263 1530V1714H428V1530H263ZM657 1530V1714H820V1530H657Z" />
<glyph unicode="&#xd0;" glyph-name="Eth" horiz-adv-x="1479" d="M1189 719Q1189 862 1148 963T1033 1130T856 1225T630 1256H359V801H765V647H359V153H673Q784 153 878 189T1042 296T1150 473T1189 719ZM14 801H168V1409H634Q797 1409 934 1369T1171 1244T1325
1029T1381 719Q1381 543 1328 409T1183 184T966 47T695 0H168V647H14V801Z" />
<glyph unicode="&#xd1;" glyph-name="Ntilde" horiz-adv-x="1479" d="M1082 0L328 1200Q330 1151 333 1103Q335 1062 336 1017T338 936V0H168V1409H390L1152 201L1146 299Q1144 341 1142 390T1140 485V1409H1312V0H1082ZM909 1530Q867 1530 825 1548T744 1589T670
1630T603 1649Q548 1649 521 1618T485 1530H394Q399 1575 409 1622T441 1709T501 1773T597 1798Q641 1798 683 1780T764 1738L837 1698Q872 1679 902 1679Q956 1679 983 1710T1019 1798H1111Q1106 1754 1096 1707T1065 1620T1006 1556T909 1530Z" />
<glyph unicode="&#xd2;" glyph-name="Ograve" horiz-adv-x="1593" d="M1300 711Q1300 838 1268 942T1172 1120T1014 1234T797 1274Q671 1274 576 1234T418 1120T323 942T291 711T323 479T419 297T577 178T795 135Q927 135 1022 178T1179 297T1270 480T1300 711ZM1495
711Q1495 546 1448 411T1310 180T1090 32T795 -20Q621 -20 490 34T272 186T141 418T97 711Q97 876 143 1009T278 1235T497 1379T797 1430Q965 1430 1095 1379T1314 1234T1449 1007T1495 711ZM854 1530L544 1747V1776H751L968 1550V1530H854Z" />
<glyph unicode="&#xd3;" glyph-name="Oacute" horiz-adv-x="1593" d="M1300 711Q1300 838 1268 942T1172 1120T1014 1234T797 1274Q671 1274 576 1234T418 1120T323 942T291 711T323 479T419 297T577 178T795 135Q927 135 1022 178T1179 297T1270 480T1300 711ZM1495
711Q1495 546 1448 411T1310 180T1090 32T795 -20Q621 -20 490 34T272 186T141 418T97 711Q97 876 143 1009T278 1235T497 1379T797 1430Q965 1430 1095 1379T1314 1234T1449 1007T1495 711ZM621 1530V1550L838 1776H1045V1747L735 1530H621Z" />
<glyph unicode="&#xd4;" glyph-name="Ocircumflex" horiz-adv-x="1593" d="M1300 711Q1300 838 1268 942T1172 1120T1014 1234T797 1274Q671 1274 576 1234T418 1120T323 942T291 711T323 479T419 297T577 178T795 135Q927 135 1022 178T1179 297T1270 480T1300
711ZM1495 711Q1495 546 1448 411T1310 180T1090 32T795 -20Q621 -20 490 34T272 186T141 418T97 711Q97 876 143 1009T278 1235T497 1379T797 1430Q965 1430 1095 1379T1314 1234T1449 1007T1495 711ZM1131 1550V1530H1026L807 1669H805L573 1530H469V1550L703
1790H907L1131 1550Z" />
<glyph unicode="&#xd5;" glyph-name="Otilde" horiz-adv-x="1593" d="M1300 711Q1300 838 1268 942T1172 1120T1014 1234T797 1274Q671 1274 576 1234T418 1120T323 942T291 711T323 479T419 297T577 178T795 135Q927 135 1022 178T1179 297T1270 480T1300 711ZM1495
711Q1495 546 1448 411T1310 180T1090 32T795 -20Q621 -20 490 34T272 186T141 418T97 711Q97 876 143 1009T278 1235T497 1379T797 1430Q965 1430 1095 1379T1314 1234T1449 1007T1495 711ZM941 1530Q899 1530 857 1548T776 1589T702 1630T635 1649Q580 1649 553
1618T517 1530H426Q431 1575 441 1622T473 1709T533 1773T629 1798Q673 1798 715 1780T796 1738L869 1698Q904 1679 934 1679Q988 1679 1015 1710T1051 1798H1143Q1138 1754 1128 1707T1097 1620T1038 1556T941 1530Z" />
<glyph unicode="&#xd6;" glyph-name="Odieresis" horiz-adv-x="1593" d="M1300 711Q1300 838 1268 942T1172 1120T1014 1234T797 1274Q671 1274 576 1234T418 1120T323 942T291 711T323 479T419 297T577 178T795 135Q927 135 1022 178T1179 297T1270 480T1300
711ZM1495 711Q1495 546 1448 411T1310 180T1090 32T795 -20Q621 -20 490 34T272 186T141 418T97 711Q97 876 143 1009T278 1235T497 1379T797 1430Q965 1430 1095 1379T1314 1234T1449 1007T1495 711ZM516 1530V1714H681V1530H516ZM910 1530V1714H1073V1530H910Z"
/>
<glyph unicode="&#xd7;" glyph-name="multiply" horiz-adv-x="1196" d="M142 330L496 684L144 1036L248 1139L598 786L948 1137L1053 1032L703 684L1055 332L953 227L600 580L244 225L142 330Z" />
<glyph unicode="&#xd8;" glyph-name="Oslash" horiz-adv-x="1593" d="M291 711Q291 598 316 503T392 333L1099 1186Q1040 1228 965 1251T797 1274Q671 1274 576 1234T418 1120T323 942T291 711ZM1300 711Q1300 823 1276 915T1202 1079L493 226Q552 182 627 159T795
135Q927 135 1022 178T1179 297T1270 480T1300 711ZM1495 711Q1495 546 1448 411T1310 180T1090 32T795 -20Q668 -20 565 9T381 92L261 -53H71L271 188Q183 285 140 418T97 711Q97 876 143 1009T278 1235T497 1379T797 1430Q922 1430 1025 1402T1211 1320L1332
1466H1524L1323 1224Q1408 1130 1451 1001T1495 711Z" />
<glyph unicode="&#xd9;" glyph-name="Ugrave" horiz-adv-x="1479" d="M731 -20Q615 -20 511 11T329 107T204 273T158 512V1409H349V528Q349 421 377 347T457 225T577 157T730 135Q812 135 885 157T1013 227T1099 352T1131 541V1409H1321V530Q1321 389 1275 286T1148
114T961 13T731 -20ZM813 1530L503 1747V1776H710L927 1550V1530H813Z" />
<glyph unicode="&#xda;" glyph-name="Uacute" horiz-adv-x="1479" d="M731 -20Q615 -20 511 11T329 107T204 273T158 512V1409H349V528Q349 421 377 347T457 225T577 157T730 135Q812 135 885 157T1013 227T1099 352T1131 541V1409H1321V530Q1321 389 1275 286T1148
114T961 13T731 -20ZM565 1530V1550L782 1776H989V1747L679 1530H565Z" />
<glyph unicode="&#xdb;" glyph-name="Ucircumflex" horiz-adv-x="1479" d="M731 -20Q615 -20 511 11T329 107T204 273T158 512V1409H349V528Q349 421 377 347T457 225T577 157T730 135Q812 135 885 157T1013 227T1099 352T1131 541V1409H1321V530Q1321 389 1275
286T1148 114T961 13T731 -20ZM1070 1550V1530H965L746 1669H744L512 1530H408V1550L642 1790H846L1070 1550Z" />
<glyph unicode="&#xdc;" glyph-name="Udieresis" horiz-adv-x="1479" d="M731 -20Q615 -20 511 11T329 107T204 273T158 512V1409H349V528Q349 421 377 347T457 225T577 157T730 135Q812 135 885 157T1013 227T1099 352T1131 541V1409H1321V530Q1321 389 1275
286T1148 114T961 13T731 -20ZM459 1530V1714H624V1530H459ZM853 1530V1714H1016V1530H853Z" />
<glyph unicode="&#xdd;" glyph-name="Yacute" horiz-adv-x="1366" d="M777 584V0H587V584L45 1409H255L684 738L1111 1409H1321L777 584ZM536 1530V1550L753 1776H960V1747L650 1530H536Z" />
<glyph unicode="&#xde;" glyph-name="Thorn" horiz-adv-x="1366" d="M1066 731Q1066 865 984 939T738 1014H359V438H746Q828 438 888 460T988 521T1047 614T1066 731ZM1258 735Q1258 647 1229 568T1139 428T987 333T773 297H359V0H168V1409H359V1157H761Q886 1157
979 1127T1134 1042T1227 908T1258 735Z" />
<glyph unicode="&#xdf;" glyph-name="germandbls" horiz-adv-x="1251" d="M1167 295Q1167 229 1147 172T1083 72T971 5T809 -20Q729 -20 655 -8T526 29L524 193Q549 179 582 167T653 145T729 130T805 124Q897 124 946 167T995 289Q995 345 968 383T901 453T813
512T725 577T657 663T630 785Q630 836 646 872T687 938T741 991T794 1041T835 1098T852 1173Q852 1210 836 1241T788 1294T711 1330T609 1343Q541 1343 488 1326T398 1270T342 1170T322 1021V0H142V1027Q142 1145 173 1231T265 1374T412 1457T609 1484Q711 1484
788 1461T918 1398T997 1304T1024 1187Q1024 1126 1008 1081T966 1002T911 940L856 890Q831 867 815 843T798 791Q798 753 825 724T894 666L982 605Q1030 573 1071 531T1139 431T1167 295Z" />
<glyph unicode="&#xe0;" glyph-name="agrave" horiz-adv-x="1139" d="M455 115Q541 115 605 146T712 227T776 334T797 445V534L600 530Q531 529 474 520Q415 512 370 487T299 417T272 299Q272 211 319 163T455 115ZM414 -20Q251 -20 169 66T87 302Q87 409 127
477T233 585T383 639T554 656L797 660V719Q797 786 783 833T740 909T668 951T565 965Q513 965 471 958T398 931T348 878T323 793L135 810Q145 874 173 927T252 1020T381 1080T569 1102Q773 1102 876 1009T979 738V272Q979 192 1000 152T1080 111Q1095 111 1110
113T1139 118V6Q1105 -2 1072 -6T1000 -10Q949 -10 913 3T853 44T818 112T803 207H797Q768 155 734 113T653 42T549 -4T414 -20ZM624 1201L294 1479V1508H501L718 1221V1201H624Z" />
<glyph unicode="&#xe1;" glyph-name="aacute" horiz-adv-x="1139" d="M455 115Q541 115 605 146T712 227T776 334T797 445V534L600 530Q531 529 474 520Q415 512 370 487T299 417T272 299Q272 211 319 163T455 115ZM414 -20Q251 -20 169 66T87 302Q87 409 127
477T233 585T383 639T554 656L797 660V719Q797 786 783 833T740 909T668 951T565 965Q513 965 471 958T398 931T348 878T323 793L135 810Q145 874 173 927T252 1020T381 1080T569 1102Q773 1102 876 1009T979 738V272Q979 192 1000 152T1080 111Q1095 111 1110
113T1139 118V6Q1105 -2 1072 -6T1000 -10Q949 -10 913 3T853 44T818 112T803 207H797Q768 155 734 113T653 42T549 -4T414 -20ZM412 1201V1221L629 1508H836V1479L506 1201H412Z" />
<glyph unicode="&#xe2;" glyph-name="acircumflex" horiz-adv-x="1139" d="M455 115Q541 115 605 146T712 227T776 334T797 445V534L600 530Q531 529 474 520Q415 512 370 487T299 417T272 299Q272 211 319 163T455 115ZM414 -20Q251 -20 169 66T87 302Q87 409
127 477T233 585T383 639T554 656L797 660V719Q797 786 783 833T740 909T668 951T565 965Q513 965 471 958T398 931T348 878T323 793L135 810Q145 874 173 927T252 1020T381 1080T569 1102Q773 1102 876 1009T979 738V272Q979 192 1000 152T1080 111Q1095 111 1110
113T1139 118V6Q1105 -2 1072 -6T1000 -10Q949 -10 913 3T853 44T818 112T803 207H797Q768 155 734 113T653 42T549 -4T414 -20ZM880 1221V1201H775L556 1370H554L322 1201H218V1221L452 1491H656L880 1221Z" />
<glyph unicode="&#xe3;" glyph-name="atilde" horiz-adv-x="1139" d="M455 115Q541 115 605 146T712 227T776 334T797 445V534L600 530Q531 529 474 520Q415 512 370 487T299 417T272 299Q272 211 319 163T455 115ZM414 -20Q251 -20 169 66T87 302Q87 409 127
477T233 585T383 639T554 656L797 660V719Q797 786 783 833T740 909T668 951T565 965Q513 965 471 958T398 931T348 878T323 793L135 810Q145 874 173 927T252 1020T381 1080T569 1102Q773 1102 876 1009T979 738V272Q979 192 1000 152T1080 111Q1095 111 1110
113T1139 118V6Q1105 -2 1072 -6T1000 -10Q949 -10 913 3T853 44T818 112T803 207H797Q768 155 734 113T653 42T549 -4T414 -20ZM737 1201Q695 1201 653 1219T572 1260T498 1301T431 1320Q376 1320 349 1289T313 1201H222Q227 1246 237 1293T269 1380T329 1444T425
1469Q469 1469 511 1451T592 1410L665 1368Q700 1350 730 1350Q784 1350 811 1381T847 1469H939Q934 1425 924 1378T893 1291T834 1227T737 1201Z" />
<glyph unicode="&#xe4;" glyph-name="adieresis" horiz-adv-x="1139" d="M455 115Q541 115 605 146T712 227T776 334T797 445V534L600 530Q531 529 474 520Q415 512 370 487T299 417T272 299Q272 211 319 163T455 115ZM414 -20Q251 -20 169 66T87 302Q87 409 127
477T233 585T383 639T554 656L797 660V719Q797 786 783 833T740 909T668 951T565 965Q513 965 471 958T398 931T348 878T323 793L135 810Q145 874 173 927T252 1020T381 1080T569 1102Q773 1102 876 1009T979 738V272Q979 192 1000 152T1080 111Q1095 111 1110
113T1139 118V6Q1105 -2 1072 -6T1000 -10Q949 -10 913 3T853 44T818 112T803 207H797Q768 155 734 113T653 42T549 -4T414 -20ZM280 1219V1403H445V1219H280ZM674 1219V1403H837V1219H674Z" />
<glyph unicode="&#xe5;" glyph-name="aring" horiz-adv-x="1139" d="M455 115Q541 115 605 146T712 227T776 334T797 445V534L600 530Q531 529 474 520Q415 512 370 487T299 417T272 299Q272 211 319 163T455 115ZM414 -20Q251 -20 169 66T87 302Q87 409 127 477T233
585T383 639T554 656L797 660V719Q797 786 783 833T740 909T668 951T565 965Q513 965 471 958T398 931T348 878T323 793L135 810Q145 874 173 927T252 1020T381 1080T569 1102Q773 1102 876 1009T979 738V272Q979 192 1000 152T1080 111Q1095 111 1110 113T1139
118V6Q1105 -2 1072 -6T1000 -10Q949 -10 913 3T853 44T818 112T803 207H797Q768 155 734 113T653 42T549 -4T414 -20ZM691 1410Q691 1438 681 1462T652 1505T610 1533T557 1544Q528 1544 504 1534T461 1505T433 1463T422 1410Q422 1381 432 1357T461 1313T503
1284T557 1273Q585 1273 609 1283T652 1313T680 1356T691 1410ZM799 1460T799 1410T780 1316T728 1239T651 1187T557 1168T463 1187T386 1239T334 1316T315 1410T334 1504T386 1580T463 1632T557 1651T651 1632T728 1581T780 1504Z" />
<glyph unicode="&#xe6;" glyph-name="ae" horiz-adv-x="1821" d="M1544 641Q1529 812 1457 890T1250 969Q1205 969 1157 955T1069 903T1001 803T970 641H1544ZM786 534L591 530Q551 529 511 526T432 514T361 490T304 449T265 387T251 299Q251 212 301 164T444
115Q534 115 598 146T704 227T766 334T786 445V534ZM968 503V486Q969 404 986 336T1038 219T1127 143T1260 115Q1377 115 1447 162T1543 281L1701 236Q1684 191 1654 146T1572 64T1445 4T1260 -20Q939 -20 837 237Q808 186 771 140T683 58T564 1T402 -20Q235 -20
151 66T66 302Q66 373 85 427T137 520T216 584T315 626T427 648T546 656L786 660V719Q786 786 773 833T732 909T659 951T554 965Q500 965 456 958T380 931T329 878T302 793L114 810Q124 874 153 927T234 1020T366 1080T558 1102Q686 1102 772 1067T907 963Q970
1037 1058 1069T1253 1102Q1389 1102 1480 1058T1627 937T1706 754T1730 527V503H968Z" />
<glyph unicode="&#xe7;" glyph-name="ccedilla" horiz-adv-x="1024" d="M275 546Q275 453 288 375T334 241T418 153T548 122Q644 122 708 174T788 334L970 322Q961 255 931 193T850 84T724 9T553 -20Q426 -20 337 23T193 141T112 319T87 542Q87 651 105 734T155
880T232 985T327 1053T436 1090T551 1102Q642 1102 713 1077T835 1009T919 906T964 779L779 765Q765 855 708 908T546 961Q469 961 418 936T334 859T289 729T275 546ZM751 -253Q751 -294 736 -327T689 -385T604 -421T477 -434Q457 -434 435 -434T387 -430V-332Q436
-338 473 -338Q514 -338 542 -332T587 -316T612 -290T620 -257Q620 -220 590 -200T487 -180H458Q444 -180 430 -182L495 0H602L563 -100Q657 -103 704 -143T751 -253Z" />
<glyph unicode="&#xe8;" glyph-name="egrave" horiz-adv-x="1139" d="M862 641Q847 812 775 890T568 969Q523 969 474 955T382 903T311 803T278 641H862ZM276 503Q276 418 293 347T347 224T441 144T578 115Q695 115 765 162T861 281L1019 236Q1002 191 972 146T890
64T763 4T578 -20Q338 -20 213 123T87 548Q87 700 125 805T229 977T383 1072T571 1102Q707 1102 798 1058T945 937T1024 754T1048 527V503H276ZM657 1201L327 1479V1508H534L751 1221V1201H657Z" />
<glyph unicode="&#xe9;" glyph-name="eacute" horiz-adv-x="1139" d="M862 641Q847 812 775 890T568 969Q523 969 474 955T382 903T311 803T278 641H862ZM276 503Q276 418 293 347T347 224T441 144T578 115Q695 115 765 162T861 281L1019 236Q1002 191 972 146T890
64T763 4T578 -20Q338 -20 213 123T87 548Q87 700 125 805T229 977T383 1072T571 1102Q707 1102 798 1058T945 937T1024 754T1048 527V503H276ZM440 1201V1221L657 1508H864V1479L534 1201H440Z" />
<glyph unicode="&#xea;" glyph-name="ecircumflex" horiz-adv-x="1139" d="M862 641Q847 812 775 890T568 969Q523 969 474 955T382 903T311 803T278 641H862ZM276 503Q276 418 293 347T347 224T441 144T578 115Q695 115 765 162T861 281L1019 236Q1002 191 972
146T890 64T763 4T578 -20Q338 -20 213 123T87 548Q87 700 125 805T229 977T383 1072T571 1102Q707 1102 798 1058T945 937T1024 754T1048 527V503H276ZM907 1221V1201H802L583 1370H581L349 1201H245V1221L479 1491H683L907 1221Z" />
<glyph unicode="&#xeb;" glyph-name="edieresis" horiz-adv-x="1139" d="M862 641Q847 812 775 890T568 969Q523 969 474 955T382 903T311 803T278 641H862ZM276 503Q276 418 293 347T347 224T441 144T578 115Q695 115 765 162T861 281L1019 236Q1002 191 972
146T890 64T763 4T578 -20Q338 -20 213 123T87 548Q87 700 125 805T229 977T383 1072T571 1102Q707 1102 798 1058T945 937T1024 754T1048 527V503H276ZM293 1219V1403H458V1219H293ZM687 1219V1403H850V1219H687Z" />
<glyph unicode="&#xec;" glyph-name="igrave" horiz-adv-x="569" d="M194 0V1082H374V0H194ZM596 1201L266 1479V1508H473L690 1221V1201H596Z" />
<glyph unicode="&#xed;" glyph-name="iacute" horiz-adv-x="569" d="M194 0V1082H374V0H194ZM135 1201V1221L352 1508H559V1479L229 1201H135Z" />
<glyph unicode="&#xee;" glyph-name="icircumflex" horiz-adv-x="569" d="M194 0V1082H374V0H194ZM873 1221V1201H768L549 1370H547L315 1201H211V1221L445 1491H649L873 1221Z" />
<glyph unicode="&#xef;" glyph-name="idieresis" horiz-adv-x="569" d="M194 0V1082H374V0H194ZM264 1219V1403H429V1219H264ZM658 1219V1403H821V1219H658Z" />
<glyph unicode="&#xf0;" glyph-name="eth" horiz-adv-x="1139" d="M874 481Q874 575 858 643T806 757T714 824T577 846Q496 846 439 824T345 755T292 641T275 481Q275 291 347 202T564 113Q645 113 704 135T800 202T856 316T874 481ZM566 -20Q441 -20 351 16T201
119T114 277T86 481Q86 588 112 679T196 837T347 941T573 979Q644 979 702 963T804 920Q761 1006 704 1094T570 1251L269 1118V1232L487 1326Q431 1371 371 1410T245 1484H454Q499 1464 540 1439T624 1382L930 1514L929 1402L718 1310Q799 1236 863 1148T972 960T1039
749T1063 516V510Q1063 388 1035 290T946 123T792 17T566 -20Z" />
<glyph unicode="&#xf1;" glyph-name="ntilde" horiz-adv-x="1139" d="M829 0V686Q829 765 818 818T780 903T712 949T606 963Q542 963 491 941T403 876T346 771T326 627V0H146V851Q146 885 146 922T144 993T142 1051T140 1082H310Q311 1077 312 1055T314 1005T317
947T318 897H321Q347 944 378 982T450 1046T544 1087T667 1102Q757 1102 822 1080T929 1012T990 894T1010 721V0H829ZM737 1201Q695 1201 653 1219T572 1260T498 1301T431 1320Q376 1320 349 1289T313 1201H222Q227 1246 237 1293T269 1380T329 1444T425 1469Q469
1469 511 1451T592 1410L665 1368Q700 1350 730 1350Q784 1350 811 1381T847 1469H939Q934 1425 924 1378T893 1291T834 1227T737 1201Z" />
<glyph unicode="&#xf2;" glyph-name="ograve" horiz-adv-x="1139" d="M864 416T864 542T845 750T788 881T696 949T574 969Q505 969 450 949T355 879T296 747T275 542Q275 416 297 334T357 202T448 133T563 113Q632 113 688 132T783 201T843 333ZM1053 542Q1053
258 928 119T565 -20Q452 -20 363 14T213 118T119 293T86 542Q86 1102 571 1102Q697 1102 788 1067T938 962T1025 787T1053 542ZM659 1201L329 1479V1508H536L753 1221V1201H659Z" />
<glyph unicode="&#xf3;" glyph-name="oacute" horiz-adv-x="1139" d="M864 416T864 542T845 750T788 881T696 949T574 969Q505 969 450 949T355 879T296 747T275 542Q275 416 297 334T357 202T448 133T563 113Q632 113 688 132T783 201T843 333ZM1053 542Q1053
258 928 119T565 -20Q452 -20 363 14T213 118T119 293T86 542Q86 1102 571 1102Q697 1102 788 1067T938 962T1025 787T1053 542ZM431 1201V1221L648 1508H855V1479L525 1201H431Z" />
<glyph unicode="&#xf4;" glyph-name="ocircumflex" horiz-adv-x="1139" d="M864 416T864 542T845 750T788 881T696 949T574 969Q505 969 450 949T355 879T296 747T275 542Q275 416 297 334T357 202T448 133T563 113Q632 113 688 132T783 201T843 333ZM1053 542Q1053
258 928 119T565 -20Q452 -20 363 14T213 118T119 293T86 542Q86 1102 571 1102Q697 1102 788 1067T938 962T1025 787T1053 542ZM902 1221V1201H797L578 1370H576L344 1201H240V1221L474 1491H678L902 1221Z" />
<glyph unicode="&#xf5;" glyph-name="otilde" horiz-adv-x="1139" d="M864 416T864 542T845 750T788 881T696 949T574 969Q505 969 450 949T355 879T296 747T275 542Q275 416 297 334T357 202T448 133T563 113Q632 113 688 132T783 201T843 333ZM1053 542Q1053
258 928 119T565 -20Q452 -20 363 14T213 118T119 293T86 542Q86 1102 571 1102Q697 1102 788 1067T938 962T1025 787T1053 542ZM739 1201Q697 1201 655 1219T574 1260T500 1301T433 1320Q378 1320 351 1289T315 1201H224Q229 1246 239 1293T271 1380T331 1444T427
1469Q471 1469 513 1451T594 1410L667 1368Q702 1350 732 1350Q786 1350 813 1381T849 1469H941Q936 1425 926 1378T895 1291T836 1227T739 1201Z" />
<glyph unicode="&#xf6;" glyph-name="odieresis" horiz-adv-x="1139" d="M864 416T864 542T845 750T788 881T696 949T574 969Q505 969 450 949T355 879T296 747T275 542Q275 416 297 334T357 202T448 133T563 113Q632 113 688 132T783 201T843 333ZM1053 542Q1053
258 928 119T565 -20Q452 -20 363 14T213 118T119 293T86 542Q86 1102 571 1102Q697 1102 788 1067T938 962T1025 787T1053 542ZM295 1219V1403H460V1219H295ZM689 1219V1403H852V1219H689Z" />
<glyph unicode="&#xf7;" glyph-name="divide" horiz-adv-x="1124" d="M478 223V406H646V223H478ZM65 608V754H1060V608H65ZM478 958V1141H646V958H478Z" />
<glyph unicode="&#xf8;" glyph-name="oslash" horiz-adv-x="1251" d="M334 542Q334 412 358 327L840 888Q803 933 751 951T633 969Q564 969 509 949T414 879T355 747T334 542ZM923 542Q923 610 917 664T900 763L417 201Q455 152 507 133T622 113Q691 113 747 132T842
201T902 333T923 542ZM1112 542Q1112 258 987 119T624 -20Q527 -20 449 4T311 78L211 -38H44L228 176Q187 244 166 335T145 542Q145 1102 630 1102Q733 1102 811 1079T946 1011L1037 1116H1204L1031 915Q1073 846 1092 754T1112 542Z" />
<glyph unicode="&#xf9;" glyph-name="ugrave" horiz-adv-x="1139" d="M320 1082V396Q320 317 331 264T369 179T437 133T543 119Q607 119 658 141T746 206T803 311T823 455V1082H1003V231Q1003 197 1003 160T1005 89T1007 31T1009 0H839Q838 5 837 27T835 77T832
135T831 185H828Q802 138 771 100T699 36T605 -5T482 -20Q392 -20 327 2T220 70T159 188T139 361V1082H320ZM672 1201L342 1479V1508H549L766 1221V1201H672Z" />
<glyph unicode="&#xfa;" glyph-name="uacute" horiz-adv-x="1139" d="M320 1082V396Q320 317 331 264T369 179T437 133T543 119Q607 119 658 141T746 206T803 311T823 455V1082H1003V231Q1003 197 1003 160T1005 89T1007 31T1009 0H839Q838 5 837 27T835 77T832
135T831 185H828Q802 138 771 100T699 36T605 -5T482 -20Q392 -20 327 2T220 70T159 188T139 361V1082H320ZM415 1201V1221L632 1508H839V1479L509 1201H415Z" />
<glyph unicode="&#xfb;" glyph-name="ucircumflex" horiz-adv-x="1139" d="M320 1082V396Q320 317 331 264T369 179T437 133T543 119Q607 119 658 141T746 206T803 311T823 455V1082H1003V231Q1003 197 1003 160T1005 89T1007 31T1009 0H839Q838 5 837 27T835
77T832 135T831 185H828Q802 138 771 100T699 36T605 -5T482 -20Q392 -20 327 2T220 70T159 188T139 361V1082H320ZM901 1221V1201H796L577 1370H575L343 1201H239V1221L473 1491H677L901 1221Z" />
<glyph unicode="&#xfc;" glyph-name="udieresis" horiz-adv-x="1139" d="M320 1082V396Q320 317 331 264T369 179T437 133T543 119Q607 119 658 141T746 206T803 311T823 455V1082H1003V231Q1003 197 1003 160T1005 89T1007 31T1009 0H839Q838 5 837 27T835 77T832
135T831 185H828Q802 138 771 100T699 36T605 -5T482 -20Q392 -20 327 2T220 70T159 188T139 361V1082H320ZM282 1219V1403H447V1219H282ZM676 1219V1403H839V1219H676Z" />
<glyph unicode="&#xfd;" glyph-name="yacute" horiz-adv-x="1024" d="M604 0Q566 -98 527 -176T438 -310T329 -395T191 -425Q157 -425 128 -423T67 -414V-279Q86 -282 110 -283T151 -285Q230 -285 298 -226T417 -38L434 5L5 1082H197L425 484L450 412L482 322L509
241Q521 205 523 196Q526 207 538 240L564 312L593 393L618 464L830 1082H1020L604 0ZM355 1201V1221L572 1508H779V1479L449 1201H355Z" />
<glyph unicode="&#xfe;" glyph-name="thorn" horiz-adv-x="1139" d="M864 542Q864 642 852 720T811 852T732 934T609 962Q549 962 496 945T404 880T341 748T318 528Q318 413 337 334T392 205T483 135T607 113Q682 113 731 142T810 226T852 360T864 542ZM138 1484H318V1061Q318
1031 318 1004Q317 983 316 955Q315 930 314 908H320Q345 960 377 996T450 1056T541 1090T655 1101Q767 1101 843 1061T966 949T1033 774T1053 546Q1053 423 1033 319T967 140T844 23T655 -20Q539 -20 452 24T319 168H314Q315 166 315 150T316 110T317 57T318 -2V-425H138V1484Z"
/>
<glyph unicode="&#xff;" glyph-name="ydieresis" horiz-adv-x="1024" d="M604 0Q566 -98 527 -176T438 -310T329 -395T191 -425Q157 -425 128 -423T67 -414V-279Q86 -282 110 -283T151 -285Q230 -285 298 -226T417 -38L434 5L5 1082H197L425 484L450 412L482 322L509
241Q521 205 523 196Q526 207 538 240L564 312L593 393L618 464L830 1082H1020L604 0ZM232 1219V1403H397V1219H232ZM626 1219V1403H789V1219H626Z" />
<glyph unicode="&#x100;" glyph-name="Amacron" horiz-adv-x="1366" d="M768 1026Q748 1078 738 1107L712 1182L694 1238Q686 1260 685 1265Q683 1260 676 1237T658 1180L632 1105L602 1024L422 561H949L768 1026ZM1167 0L1006 412H364L202 0H4L579 1409H796L1362
0H1167ZM960 1570H411V1697H960V1570Z" />
<glyph unicode="&#x101;" glyph-name="amacron" horiz-adv-x="1139" d="M455 115Q541 115 605 146T712 227T776 334T797 445V534L600 530Q531 529 474 520Q415 512 370 487T299 417T272 299Q272 211 319 163T455 115ZM414 -20Q251 -20 169 66T87 302Q87 409 127
477T233 585T383 639T554 656L797 660V719Q797 786 783 833T740 909T668 951T565 965Q513 965 471 958T398 931T348 878T323 793L135 810Q145 874 173 927T252 1020T381 1080T569 1102Q773 1102 876 1009T979 738V272Q979 192 1000 152T1080 111Q1095 111 1110
113T1139 118V6Q1105 -2 1072 -6T1000 -10Q949 -10 913 3T853 44T818 112T803 207H797Q768 155 734 113T653 42T549 -4T414 -20ZM833 1236H284V1363H833V1236Z" />
<glyph unicode="&#x102;" glyph-name="Abreve" horiz-adv-x="1366" d="M768 1026Q748 1078 738 1107L712 1182L694 1238Q686 1260 685 1265Q683 1260 676 1237T658 1180L632 1105L602 1024L422 561H949L768 1026ZM1167 0L1006 412H364L202 0H4L579 1409H796L1362
0H1167ZM685 1530Q611 1530 553 1550T453 1605T386 1685T353 1779H470Q487 1726 541 1696T687 1666T831 1696T902 1779H1019Q1010 1730 985 1685T919 1606T819 1551T685 1530Z" />
<glyph unicode="&#x103;" glyph-name="abreve" horiz-adv-x="1139" d="M455 115Q541 115 605 146T712 227T776 334T797 445V534L600 530Q531 529 474 520Q415 512 370 487T299 417T272 299Q272 211 319 163T455 115ZM414 -20Q251 -20 169 66T87 302Q87 409 127
477T233 585T383 639T554 656L797 660V719Q797 786 783 833T740 909T668 951T565 965Q513 965 471 958T398 931T348 878T323 793L135 810Q145 874 173 927T252 1020T381 1080T569 1102Q773 1102 876 1009T979 738V272Q979 192 1000 152T1080 111Q1095 111 1110
113T1139 118V6Q1105 -2 1072 -6T1000 -10Q949 -10 913 3T853 44T818 112T803 207H797Q768 155 734 113T653 42T549 -4T414 -20ZM560 1201Q486 1201 428 1226T328 1294T261 1393T228 1510H345Q353 1467 372 1438T420 1390T484 1365T562 1357T639 1365T703 1391T750
1438T777 1510H894Q885 1449 860 1393T794 1295T694 1227T560 1201Z" />
<glyph unicode="&#x104;" glyph-name="Aogonek" horiz-adv-x="1366" d="M768 1026Q748 1078 738 1107L712 1182L694 1238Q686 1260 685 1265Q683 1260 676 1237T658 1180L632 1105L602 1024L422 561H949L768 1026ZM1167 0L1006 412H364L202 0H4L579 1409H796L1362
0H1167ZM1379 -389Q1351 -401 1316 -408T1240 -416Q1135 -416 1082 -365T1029 -229Q1029 -182 1046 -143T1087 -73T1137 -21T1184 11H1317Q1292 -3 1266 -25T1219 -77T1184 -142T1170 -216Q1170 -258 1194 -282T1264 -306Q1293 -306 1322 -300T1379 -282V-389Z"
/>
<glyph unicode="&#x105;" glyph-name="aogonek" horiz-adv-x="1139" d="M455 115Q541 115 605 146T712 227T776 334T797 445V534L600 530Q531 529 474 520Q415 512 370 487T299 417T272 299Q272 211 319 163T455 115ZM414 -20Q251 -20 169 66T87 302Q87 409 127
477T233 585T383 639T554 656L797 660V719Q797 786 783 833T740 909T668 951T565 965Q513 965 471 958T398 931T348 878T323 793L135 810Q145 874 173 927T252 1020T381 1080T569 1102Q773 1102 876 1009T979 738V272Q979 192 1000 152T1080 111Q1095 111 1110
113T1139 118V6Q1105 -2 1072 -6T1000 -10Q949 -10 913 3T853 44T818 112T803 207H797Q768 155 734 113T653 42T549 -4T414 -20ZM1139 -400Q1111 -412 1076 -419T1000 -427Q895 -427 842 -376T789 -240Q789 -193 806 -154T847 -84T897 -32T944 0H1077Q1052 -14
1026 -36T979 -88T944 -153T930 -227Q930 -269 954 -293T1024 -317Q1053 -317 1082 -311T1139 -293V-400Z" />
<glyph unicode="&#x106;" glyph-name="Cacute" horiz-adv-x="1479" d="M792 1274Q672 1274 580 1234T425 1120T330 942T298 711T332 479T431 297T589 179T800 137Q882 137 949 158T1071 219T1169 311T1245 430L1401 352Q1363 273 1307 205T1176 87T1005 9T791
-20Q620 -20 492 34T277 186T147 418T104 711Q104 876 149 1009T282 1235T498 1379T790 1430Q1015 1430 1166 1342T1388 1081L1207 1021Q1187 1071 1153 1116T1068 1197T949 1253T792 1274ZM667 1530V1550L884 1776H1091V1747L781 1530H667Z" />
<glyph unicode="&#x107;" glyph-name="cacute" horiz-adv-x="1024" d="M275 546Q275 453 288 375T334 241T418 153T548 122Q644 122 708 174T788 334L970 322Q961 255 931 193T850 84T724 9T553 -20Q426 -20 337 23T193 141T112 319T87 542Q87 651 105 734T155
880T232 985T327 1053T436 1090T551 1102Q642 1102 713 1077T835 1009T919 906T964 779L779 765Q765 855 708 908T546 961Q469 961 418 936T334 859T289 729T275 546ZM431 1201V1221L648 1508H855V1479L525 1201H431Z" />
<glyph unicode="&#x108;" glyph-name="Ccircumflex" horiz-adv-x="1479" d="M792 1274Q672 1274 580 1234T425 1120T330 942T298 711T332 479T431 297T589 179T800 137Q882 137 949 158T1071 219T1169 311T1245 430L1401 352Q1363 273 1307 205T1176 87T1005 9T791
-20Q620 -20 492 34T277 186T147 418T104 711Q104 876 149 1009T282 1235T498 1379T790 1430Q1015 1430 1166 1342T1388 1081L1207 1021Q1187 1071 1153 1116T1068 1197T949 1253T792 1274ZM1122 1550V1530H1017L798 1669H796L564 1530H460V1550L694 1790H898L1122
1550Z" />
<glyph unicode="&#x109;" glyph-name="ccircumflex" horiz-adv-x="1024" d="M275 546Q275 453 288 375T334 241T418 153T548 122Q644 122 708 174T788 334L970 322Q961 255 931 193T850 84T724 9T553 -20Q426 -20 337 23T193 141T112 319T87 542Q87 651 105 734T155
880T232 985T327 1053T436 1090T551 1102Q642 1102 713 1077T835 1009T919 906T964 779L779 765Q765 855 708 908T546 961Q469 961 418 936T334 859T289 729T275 546ZM870 1221V1201H765L546 1370H544L312 1201H208V1221L442 1491H646L870 1221Z" />
<glyph unicode="&#x10a;" glyph-name="Cdotaccent" horiz-adv-x="1479" d="M792 1274Q672 1274 580 1234T425 1120T330 942T298 711T332 479T431 297T589 179T800 137Q882 137 949 158T1071 219T1169 311T1245 430L1401 352Q1363 273 1307 205T1176 87T1005 9T791
-20Q620 -20 492 34T277 186T147 418T104 711Q104 876 149 1009T282 1235T498 1379T790 1430Q1015 1430 1166 1342T1388 1081L1207 1021Q1187 1071 1153 1116T1068 1197T949 1253T792 1274ZM702 1605V1777H882V1605H702Z" />
<glyph unicode="&#x10b;" glyph-name="cdotaccent" horiz-adv-x="1024" d="M275 546Q275 453 288 375T334 241T418 153T548 122Q644 122 708 174T788 334L970 322Q961 255 931 193T850 84T724 9T553 -20Q426 -20 337 23T193 141T112 319T87 542Q87 651 105 734T155
880T232 985T327 1053T436 1090T551 1102Q642 1102 713 1077T835 1009T919 906T964 779L779 765Q765 855 708 908T546 961Q469 961 418 936T334 859T289 729T275 546ZM456 1312V1484H636V1312H456Z" />
<glyph unicode="&#x10c;" glyph-name="Ccaron" horiz-adv-x="1479" d="M792 1274Q672 1274 580 1234T425 1120T330 942T298 711T332 479T431 297T589 179T800 137Q882 137 949 158T1071 219T1169 311T1245 430L1401 352Q1363 273 1307 205T1176 87T1005 9T791
-20Q620 -20 492 34T277 186T147 418T104 711Q104 876 149 1009T282 1235T498 1379T790 1430Q1015 1430 1166 1342T1388 1081L1207 1021Q1187 1071 1153 1116T1068 1197T949 1253T792 1274ZM898 1530H694L460 1769V1790H564L796 1651H798L1017 1790H1122V1769L898
1530Z" />
<glyph unicode="&#x10d;" glyph-name="ccaron" horiz-adv-x="1024" d="M275 546Q275 453 288 375T334 241T418 153T548 122Q644 122 708 174T788 334L970 322Q961 255 931 193T850 84T724 9T553 -20Q426 -20 337 23T193 141T112 319T87 542Q87 651 105 734T155
880T232 985T327 1053T436 1090T551 1102Q642 1102 713 1077T835 1009T919 906T964 779L779 765Q765 855 708 908T546 961Q469 961 418 936T334 859T289 729T275 546ZM652 1201H448L214 1471V1491H318L550 1322H552L771 1491H876V1471L652 1201Z" />
<glyph unicode="&#x10e;" glyph-name="Dcaron" horiz-adv-x="1479" d="M1189 719Q1189 862 1148 963T1033 1130T856 1225T630 1256H359V153H673Q784 153 878 189T1042 296T1150 473T1189 719ZM1381 719Q1381 543 1328 409T1183 184T966 47T695 0H168V1409H634Q797
1409 934 1369T1171 1244T1325 1029T1381 719ZM796 1530H592L358 1769V1790H462L694 1651H696L915 1790H1020V1769L796 1530Z" />
<glyph unicode="&#x10f;" glyph-name="dcaron" horiz-adv-x="1259" d="M275 542Q275 430 289 350T334 219T413 143T530 119Q601 119 655 142T746 216T802 351T821 554Q821 669 802 748T746 877T656 947T532 969Q466 969 418 946T338 872T291 740T275 542ZM821
174Q771 70 689 25T484 -20Q279 -20 183 118T86 536Q86 1102 484 1102Q607 1102 689 1057T821 914H823Q823 924 822 946V990Q821 1014 821 1035V1065V1484H1001V223Q1001 184 1001 148T1003 82T1005 31T1007 0H835Q833 10 832 28T829 71T826 121T825 174H821ZM1279
1378Q1279 1291 1257 1233T1195 1127H1078Q1123 1175 1147 1223T1172 1317H1084V1484H1279V1378Z" />
<glyph unicode="&#x110;" glyph-name="Dcroat" horiz-adv-x="1479" d="M1189 719Q1189 862 1148 963T1033 1130T856 1225T630 1256H359V801H765V647H359V153H673Q784 153 878 189T1042 296T1150 473T1189 719ZM14 801H168V1409H634Q797 1409 934 1369T1171 1244T1325
1029T1381 719Q1381 543 1328 409T1183 184T966 47T695 0H168V647H14V801Z" />
<glyph unicode="&#x111;" glyph-name="" horiz-adv-x="1139" d="M275 542Q275 430 289 350T334 219T413 143T530 119Q601 119 655 142T746 216T802 351T821 554Q821 669 802 748T746 877T656 947T532 969Q466 969 418 946T338 872T291 740T275 542ZM821 174Q771
70 689 25T484 -20Q279 -20 183 118T86 536Q86 1102 484 1102Q607 1102 689 1057T821 914H823Q823 924 822 946V990Q821 1014 821 1035V1065V1206H521V1337H821V1484H1001V1337H1133V1206H1001V223Q1001 184 1001 148T1003 82T1005 31T1007 0H835Q833 10 832 28T829
71T826 121T825 174H821Z" />
<glyph unicode="&#x112;" glyph-name="Emacron" horiz-adv-x="1366" d="M168 0V1409H1237V1253H359V801H1177V647H359V156H1278V0H168ZM978 1570H429V1697H978V1570Z" />
<glyph unicode="&#x113;" glyph-name="emacron" horiz-adv-x="1139" d="M862 641Q847 812 775 890T568 969Q523 969 474 955T382 903T311 803T278 641H862ZM276 503Q276 418 293 347T347 224T441 144T578 115Q695 115 765 162T861 281L1019 236Q1002 191 972 146T890
64T763 4T578 -20Q338 -20 213 123T87 548Q87 700 125 805T229 977T383 1072T571 1102Q707 1102 798 1058T945 937T1024 754T1048 527V503H276ZM845 1236H296V1363H845V1236Z" />
<glyph unicode="&#x114;" glyph-name="Ebreve" horiz-adv-x="1366" d="M168 0V1409H1237V1253H359V801H1177V647H359V156H1278V0H168ZM701 1530Q627 1530 569 1550T469 1605T402 1685T369 1779H486Q503 1726 557 1696T703 1666T847 1696T918 1779H1035Q1026 1730
1001 1685T935 1606T835 1551T701 1530Z" />
<glyph unicode="&#x115;" glyph-name="ebreve" horiz-adv-x="1139" d="M862 641Q847 812 775 890T568 969Q523 969 474 955T382 903T311 803T278 641H862ZM276 503Q276 418 293 347T347 224T441 144T578 115Q695 115 765 162T861 281L1019 236Q1002 191 972 146T890
64T763 4T578 -20Q338 -20 213 123T87 548Q87 700 125 805T229 977T383 1072T571 1102Q707 1102 798 1058T945 937T1024 754T1048 527V503H276ZM569 1201Q495 1201 437 1226T337 1294T270 1393T237 1510H354Q362 1467 381 1438T429 1390T493 1365T571 1357T648
1365T712 1391T759 1438T786 1510H903Q894 1449 869 1393T803 1295T703 1227T569 1201Z" />
<glyph unicode="&#x116;" glyph-name="Edotaccent" horiz-adv-x="1366" d="M168 0V1409H1237V1253H359V801H1177V647H359V156H1278V0H168ZM613 1605V1777H793V1605H613Z" />
<glyph unicode="&#x117;" glyph-name="edotaccent" horiz-adv-x="1139" d="M862 641Q847 812 775 890T568 969Q523 969 474 955T382 903T311 803T278 641H862ZM276 503Q276 418 293 347T347 224T441 144T578 115Q695 115 765 162T861 281L1019 236Q1002 191 972
146T890 64T763 4T578 -20Q338 -20 213 123T87 548Q87 700 125 805T229 977T383 1072T571 1102Q707 1102 798 1058T945 937T1024 754T1048 527V503H276ZM480 1312V1484H660V1312H480Z" />
<glyph unicode="&#x118;" glyph-name="Eogonek" horiz-adv-x="1366" d="M168 0V1409H1237V1253H359V801H1177V647H359V156H1278V0H168ZM1278 -400Q1250 -412 1215 -419T1139 -427Q1034 -427 981 -376T928 -240Q928 -193 945 -154T986 -84T1036 -32T1083 0H1216Q1191
-14 1165 -36T1118 -88T1083 -153T1069 -227Q1069 -269 1093 -293T1163 -317Q1192 -317 1221 -311T1278 -293V-400Z" />
<glyph unicode="&#x119;" glyph-name="eogonek" horiz-adv-x="1139" d="M862 641Q847 812 775 890T568 969Q523 969 474 955T382 903T311 803T278 641H862ZM276 503Q276 418 293 347T347 224T441 144T578 115Q695 115 765 162T861 281L1019 236Q1002 191 972 146T890
64T763 4T578 -20Q338 -20 213 123T87 548Q87 700 125 805T229 977T383 1072T571 1102Q707 1102 798 1058T945 937T1024 754T1048 527V503H276ZM811 -400Q783 -412 748 -419T672 -427Q567 -427 514 -376T461 -240Q461 -193 478 -154T519 -84T569 -32T616 0H749Q724
-14 698 -36T651 -88T616 -153T602 -227Q602 -269 626 -293T696 -317Q725 -317 754 -311T811 -293V-400Z" />
<glyph unicode="&#x11a;" glyph-name="Ecaron" horiz-adv-x="1366" d="M168 0V1409H1237V1253H359V801H1177V647H359V156H1278V0H168ZM805 1530H601L367 1769V1790H471L703 1651H705L924 1790H1029V1769L805 1530Z" />
<glyph unicode="&#x11b;" glyph-name="ecaron" horiz-adv-x="1139" d="M862 641Q847 812 775 890T568 969Q523 969 474 955T382 903T311 803T278 641H862ZM276 503Q276 418 293 347T347 224T441 144T578 115Q695 115 765 162T861 281L1019 236Q1002 191 972 146T890
64T763 4T578 -20Q338 -20 213 123T87 548Q87 700 125 805T229 977T383 1072T571 1102Q707 1102 798 1058T945 937T1024 754T1048 527V503H276ZM672 1201H468L234 1471V1491H338L570 1322H572L791 1491H896V1471L672 1201Z" />
<glyph unicode="&#x11c;" glyph-name="Gcircumflex" horiz-adv-x="1593" d="M103 711Q103 876 147 1009T280 1235T500 1379T804 1430Q934 1430 1032 1407T1202 1341T1324 1237T1409 1098L1227 1044Q1201 1096 1165 1138T1076 1211T956 1257T799 1274Q671 1274
577 1234T420 1120T328 942T297 711T330 479T428 297T589 178T813 135Q896 135 966 149T1092 185T1192 235T1264 291V545H843V705H1440V219Q1393 171 1330 128T1187 51T1014 -1T813 -20Q635 -20 502 34T281 186T148 418T103 711ZM1137 1550V1530H1032L813 1669H811L579
1530H475V1550L709 1790H913L1137 1550Z" />
<glyph unicode="&#x11d;" glyph-name="gcircumflex" horiz-adv-x="1139" d="M822 541Q822 654 798 734T733 866T642 941T536 965Q467 965 418 941T336 866T288 734T272 541Q272 424 287 345T335 216T416 146T533 125Q587 125 638 148T731 221T797 350T822 541ZM548
-425Q455 -425 383 -406T260 -352T177 -267T131 -158L312 -132Q330 -207 391 -247T553 -288Q614 -288 664 -271T749 -217T803 -119T822 27V201H820Q800 160 771 123T699 56T600 10T472 -8Q369 -8 296 26T176 130T108 301T86 539Q86 669 107 773T177 949T303 1060T492
1099Q607 1099 691 1047T822 897H824Q824 922 825 953T828 1011T832 1059T836 1082H1007Q1006 1073 1005 1052T1003 1000T1002 934T1001 858V31Q1001 -196 890 -310T548 -425ZM878 1221V1201H773L554 1370H552L320 1201H216V1221L450 1491H654L878 1221Z" />
<glyph unicode="&#x11e;" glyph-name="Gbreve" horiz-adv-x="1593" d="M103 711Q103 876 147 1009T280 1235T500 1379T804 1430Q934 1430 1032 1407T1202 1341T1324 1237T1409 1098L1227 1044Q1201 1096 1165 1138T1076 1211T956 1257T799 1274Q671 1274 577 1234T420
1120T328 942T297 711T330 479T428 297T589 178T813 135Q896 135 966 149T1092 185T1192 235T1264 291V545H843V705H1440V219Q1393 171 1330 128T1187 51T1014 -1T813 -20Q635 -20 502 34T281 186T148 418T103 711ZM810 1530Q736 1530 678 1550T578 1605T511 1685T478
1779H595Q612 1726 666 1696T812 1666T956 1696T1027 1779H1144Q1135 1730 1110 1685T1044 1606T944 1551T810 1530Z" />
<glyph unicode="&#x11f;" glyph-name="gbreve" horiz-adv-x="1139" d="M822 541Q822 654 798 734T733 866T642 941T536 965Q467 965 418 941T336 866T288 734T272 541Q272 424 287 345T335 216T416 146T533 125Q587 125 638 148T731 221T797 350T822 541ZM548
-425Q455 -425 383 -406T260 -352T177 -267T131 -158L312 -132Q330 -207 391 -247T553 -288Q614 -288 664 -271T749 -217T803 -119T822 27V201H820Q800 160 771 123T699 56T600 10T472 -8Q369 -8 296 26T176 130T108 301T86 539Q86 669 107 773T177 949T303 1060T492
1099Q607 1099 691 1047T822 897H824Q824 922 825 953T828 1011T832 1059T836 1082H1007Q1006 1073 1005 1052T1003 1000T1002 934T1001 858V31Q1001 -196 890 -310T548 -425ZM546 1201Q472 1201 414 1226T314 1294T247 1393T214 1510H331Q339 1467 358 1438T406
1390T470 1365T548 1357T625 1365T689 1391T736 1438T763 1510H880Q871 1449 846 1393T780 1295T680 1227T546 1201Z" />
<glyph unicode="&#x120;" glyph-name="Gdotaccent" horiz-adv-x="1593" d="M103 711Q103 876 147 1009T280 1235T500 1379T804 1430Q934 1430 1032 1407T1202 1341T1324 1237T1409 1098L1227 1044Q1201 1096 1165 1138T1076 1211T956 1257T799 1274Q671 1274 577
1234T420 1120T328 942T297 711T330 479T428 297T589 178T813 135Q896 135 966 149T1092 185T1192 235T1264 291V545H843V705H1440V219Q1393 171 1330 128T1187 51T1014 -1T813 -20Q635 -20 502 34T281 186T148 418T103 711ZM721 1605V1777H901V1605H721Z" />
<glyph unicode="&#x121;" glyph-name="gdotaccent" horiz-adv-x="1139" d="M822 541Q822 654 798 734T733 866T642 941T536 965Q467 965 418 941T336 866T288 734T272 541Q272 424 287 345T335 216T416 146T533 125Q587 125 638 148T731 221T797 350T822 541ZM548
-425Q455 -425 383 -406T260 -352T177 -267T131 -158L312 -132Q330 -207 391 -247T553 -288Q614 -288 664 -271T749 -217T803 -119T822 27V201H820Q800 160 771 123T699 56T600 10T472 -8Q369 -8 296 26T176 130T108 301T86 539Q86 669 107 773T177 949T303 1060T492
1099Q607 1099 691 1047T822 897H824Q824 922 825 953T828 1011T832 1059T836 1082H1007Q1006 1073 1005 1052T1003 1000T1002 934T1001 858V31Q1001 -196 890 -310T548 -425ZM457 1312V1484H637V1312H457Z" />
<glyph unicode="&#x122;" glyph-name="Gcommaaccent" horiz-adv-x="1593" d="M103 711Q103 876 147 1009T280 1235T500 1379T804 1430Q934 1430 1032 1407T1202 1341T1324 1237T1409 1098L1227 1044Q1201 1096 1165 1138T1076 1211T956 1257T799 1274Q671 1274
577 1234T420 1120T328 942T297 711T330 479T428 297T589 178T813 135Q896 135 966 149T1092 185T1192 235T1264 291V545H843V705H1440V219Q1393 171 1330 128T1187 51T1014 -1T813 -20Q635 -20 502 34T281 186T148 418T103 711ZM918 -193Q918 -280 896 -333T834
-434H717Q762 -386 786 -343T811 -254H723V-98H918V-193Z" />
<glyph unicode="&#x123;" glyph-name="gcommaaccent" horiz-adv-x="1139" d="M822 541Q822 654 798 734T733 866T642 941T536 965Q467 965 418 941T336 866T288 734T272 541Q272 424 287 345T335 216T416 146T533 125Q587 125 638 148T731 221T797 350T822 541ZM548
-425Q455 -425 383 -406T260 -352T177 -267T131 -158L312 -132Q330 -207 391 -247T553 -288Q614 -288 664 -271T749 -217T803 -119T822 27V201H820Q800 160 771 123T699 56T600 10T472 -8Q369 -8 296 26T176 130T108 301T86 539Q86 669 107 773T177 949T303 1060T492
1099Q607 1099 691 1047T822 897H824Q824 922 825 953T828 1011T832 1059T836 1082H1007Q1006 1073 1005 1052T1003 1000T1002 934T1001 858V31Q1001 -196 890 -310T548 -425ZM442 1317Q442 1404 464 1462T526 1568H643Q598 1520 574 1472T549 1378H637V1211H442V1317Z"
/>
<glyph unicode="&#x124;" glyph-name="Hcircumflex" horiz-adv-x="1479" d="M1121 0V653H359V0H168V1409H359V813H1121V1409H1312V0H1121ZM1071 1550V1530H966L747 1669H745L513 1530H409V1550L643 1790H847L1071 1550Z" />
<glyph unicode="&#x125;" glyph-name="hcircumflex" horiz-adv-x="1139" d="M317 897Q347 952 382 990T459 1054T551 1090T663 1102Q767 1102 833 1074T938 996T991 875T1006 721V0H825V686Q825 755 817 807T784 893T716 945T602 963Q538 963 487 940T399 875T342
773T322 638V0H142V1484H322V1098Q322 1065 321 1032T318 971L316 924Q315 904 314 897H317ZM904 1614V1594H799L580 1733H578L346 1594H242V1614L476 1854H680L904 1614Z" />
<glyph unicode="&#x126;" glyph-name="Hbar" horiz-adv-x="1479" d="M1126 813V1025H359V813H1126ZM1126 0V653H359V0H168V1025H14V1179H168V1409H359V1179H1126V1409H1312V1179H1465V1025H1312V0H1126Z" />
<glyph unicode="&#x127;" glyph-name="hbar" horiz-adv-x="1139" d="M317 857Q347 912 382 950T459 1014T551 1050T663 1062Q767 1062 833 1034T938 956T991 835T1006 681V0H825V646Q825 715 817 767T784 853T716 905T602 923Q538 923 487 900T399 835T342 733T322
598V0H142V1206H10V1337H142V1484H322V1337H622V1206H322V1058Q322 1025 321 992T318 931L316 884Q315 864 314 857H317Z" />
<glyph unicode="&#x128;" glyph-name="Itilde" horiz-adv-x="569" d="M189 0V1409H380V0H189ZM699 1530Q657 1530 615 1548T534 1589T460 1630T393 1649Q338 1649 311 1618T275 1530H184Q189 1575 199 1622T231 1709T291 1773T387 1798Q431 1798 473 1780T554
1738L627 1698Q662 1679 692 1679Q746 1679 773 1710T809 1798H901Q896 1754 886 1707T855 1620T796 1556T699 1530Z" />
<glyph unicode="&#x129;" glyph-name="itilde" horiz-adv-x="569" d="M194 0V1082H374V0H194ZM699 1201Q657 1201 615 1219T534 1260T460 1301T393 1320Q338 1320 311 1289T275 1201H184Q189 1246 199 1293T231 1380T291 1444T387 1469Q431 1469 473 1451T554
1410L627 1368Q662 1350 692 1350Q746 1350 773 1381T809 1469H901Q896 1425 886 1378T855 1291T796 1227T699 1201Z" />
<glyph unicode="&#x12a;" glyph-name="Imacron" horiz-adv-x="569" d="M189 0V1409H380V0H189ZM561 1570H12V1697H561V1570Z" />
<glyph unicode="&#x12b;" glyph-name="imacron" horiz-adv-x="569" d="M194 0V1082H374V0H194ZM817 1236H268V1363H817V1236Z" />
<glyph unicode="&#x12c;" glyph-name="Ibreve" horiz-adv-x="569" d="M189 0V1409H380V0H189ZM542 1530Q468 1530 410 1550T310 1605T243 1685T210 1779H327Q344 1726 398 1696T544 1666T688 1696T759 1779H876Q867 1730 842 1685T776 1606T676 1551T542 1530Z" />
<glyph unicode="&#x12d;" glyph-name="ibreve" horiz-adv-x="569" d="M194 0V1082H374V0H194ZM542 1201Q468 1201 410 1226T310 1294T243 1393T210 1510H327Q335 1467 354 1438T402 1390T466 1365T544 1357T621 1365T685 1391T732 1438T759 1510H876Q867 1449
842 1393T776 1295T676 1227T542 1201Z" />
<glyph unicode="&#x12e;" glyph-name="Iogonek" horiz-adv-x="569" d="M189 0V1409H380V0H189ZM442 -400Q414 -412 379 -419T303 -427Q198 -427 145 -376T92 -240Q92 -193 109 -154T150 -84T200 -32T247 0H380Q355 -14 329 -36T282 -88T247 -153T233 -227Q233
-269 257 -293T327 -317Q356 -317 385 -311T442 -293V-400Z" />
<glyph unicode="&#x12f;" glyph-name="iogonek" horiz-adv-x="455" d="M137 0V1082H317V0H137ZM137 1312V1484H317V1312H137ZM637 -400Q609 -412 574 -419T498 -427Q393 -427 340 -376T287 -240Q287 -193 304 -154T345 -84T395 -32T442 0H575Q550 -14 524 -36T477
-88T442 -153T428 -227Q428 -269 452 -293T522 -317Q551 -317 580 -311T637 -293V-400Z" />
<glyph unicode="&#x130;" glyph-name="Idot" horiz-adv-x="569" d="M189 0V1409H380V0H189ZM195 1605V1777H375V1605H195Z" />
<glyph unicode="&#x131;" glyph-name="dotlessi" horiz-adv-x="569" d="M194 0V1082H374V0H194Z" />
<glyph unicode="&#x132;" glyph-name="IJ" horiz-adv-x="1505" d="M426 0V1409H617V0H426ZM938 -20Q767 -20 658 69T513 350L700 381Q710 316 733 270T788 193T859 149T939 135Q1043 135 1103 206T1163 416V1253H892V1409H1353V420Q1353 319 1325 238T1244 100T1113
11T938 -20Z" />
<glyph unicode="&#x133;" glyph-name="ij" horiz-adv-x="909" d="M137 0V1082H317V0H137ZM137 1312V1484H317V1312H137ZM771 -134Q771 -196 761 -249T723 -341T650 -402T531 -425Q497 -425 465 -423T404 -416V-277Q417 -279 435 -281T466 -283Q504 -283 528 -273T567
-242T586 -187T591 -107V1082H771V-134ZM591 1312V1484H771V1312H591Z" />
<glyph unicode="&#x134;" glyph-name="Jcircumflex" horiz-adv-x="1024" d="M457 -20Q286 -20 177 69T32 350L219 381Q229 316 252 270T307 193T378 149T458 135Q562 135 622 206T682 416V1253H411V1409H872V420Q872 319 844 238T763 100T632 11T457 -20ZM973
1550V1530H868L649 1669H647L415 1530H311V1550L545 1790H749L973 1550Z" />
<glyph unicode="&#x135;" glyph-name="jcircumflex" horiz-adv-x="455" d="M559 1221V1201H454L235 1370H233L1 1201H-103V1221L131 1491H335L559 1221ZM77 -425Q43 -425 11 -423T-50 -416V-277Q-37 -279 -19 -281T12 -283Q50 -283 74 -273T113 -242T132 -187T137
-107V1082H317V-134Q317 -196 307 -249T269 -341T196 -402T77 -425Z" />
<glyph unicode="&#x136;" glyph-name="Kcommaaccent" horiz-adv-x="1366" d="M1106 0L543 680L359 540V0H168V1409H359V703L1038 1409H1263L663 797L1343 0H1106ZM805 -193Q805 -280 783 -333T721 -434H604Q649 -386 673 -343T698 -254H610V-98H805V-193Z" />
<glyph unicode="&#x137;" glyph-name="kcommaaccent" horiz-adv-x="1024" d="M816 0L450 494L318 385V0H138V1484H318V557L793 1082H1004L565 617L1027 0H816ZM662 -193Q662 -280 640 -333T578 -434H461Q506 -386 530 -343T555 -254H467V-98H662V-193Z" />
<glyph unicode="&#x138;" glyph-name="kgreenlandic" horiz-adv-x="1024" d="M816 0L450 494L318 386V0H138V1082H318V557L793 1082H1004L565 617L1027 0H816Z" />
<glyph unicode="&#x139;" glyph-name="Lacute" horiz-adv-x="1139" d="M168 0V1409H359V156H1071V0H168ZM245 1530V1550L462 1776H669V1747L359 1530H245Z" />
<glyph unicode="&#x13a;" glyph-name="lacute" horiz-adv-x="455" d="M138 0V1484H318V0H138ZM91 1608V1628L308 1854H515V1825L205 1608H91Z" />
<glyph unicode="&#x13b;" glyph-name="Lcommaaccent" horiz-adv-x="1139" d="M168 0V1409H359V156H1071V0H168ZM717 -193Q717 -280 695 -333T633 -434H516Q561 -386 585 -343T610 -254H522V-98H717V-193Z" />
<glyph unicode="&#x13c;" glyph-name="lcommaaccent" horiz-adv-x="455" d="M138 0V1484H318V0H138ZM583 -193Q583 -280 561 -333T499 -434H382Q427 -386 451 -343T476 -254H388V-98H583V-193Z" />
<glyph unicode="&#x13d;" glyph-name="Lcaron" horiz-adv-x="1139" d="M168 0V1409H359V156H1071V0H168ZM858 1303Q858 1216 836 1158T774 1052H657Q702 1100 726 1148T751 1242H663V1409H858V1303Z" />
<glyph unicode="&#x13e;" glyph-name="lcaron" horiz-adv-x="597" d="M138 0V1484H318V0H138ZM617 1378Q617 1291 595 1233T533 1127H416Q461 1175 485 1223T510 1317H422V1484H617V1378Z" />
<glyph unicode="&#x13f;" glyph-name="Ldot" horiz-adv-x="1139" d="M168 0V1409H359V156H1071V0H168ZM625 687V859H805V687H625Z" />
<glyph unicode="&#x140;" glyph-name="ldot" horiz-adv-x="684" d="M138 0V1484H318V0H138ZM478 687V859H658V687H478Z" />
<glyph unicode="&#x141;" glyph-name="Lslash" horiz-adv-x="1139" d="M616 797L359 648V156H1071V0H168V538L20 453V611L168 696V1409H359V806L616 954V797Z" />
<glyph unicode="&#x142;" glyph-name="lslash" horiz-adv-x="455" d="M138 0V542L16 474V632L138 700V1484H318V804L442 876V717L318 646V0H138Z" />
<glyph unicode="&#x143;" glyph-name="Nacute" horiz-adv-x="1479" d="M1082 0L328 1200Q330 1151 333 1103Q335 1062 336 1017T338 936V0H168V1409H390L1152 201L1146 299Q1144 341 1142 390T1140 485V1409H1312V0H1082ZM601 1530V1550L818 1776H1025V1747L715
1530H601Z" />
<glyph unicode="&#x144;" glyph-name="nacute" horiz-adv-x="1139" d="M829 0V686Q829 765 818 818T780 903T712 949T606 963Q542 963 491 941T403 876T346 771T326 627V0H146V851Q146 885 146 922T144 993T142 1051T140 1082H310Q311 1077 312 1055T314 1005T317
947T318 897H321Q347 944 378 982T450 1046T544 1087T667 1102Q757 1102 822 1080T929 1012T990 894T1010 721V0H829ZM460 1201V1221L677 1508H884V1479L554 1201H460Z" />
<glyph unicode="&#x145;" glyph-name="Ncommaaccent" horiz-adv-x="1479" d="M1082 0L328 1200Q330 1151 333 1103Q335 1062 336 1017T338 936V0H168V1409H390L1152 201L1146 299Q1144 341 1142 390T1140 485V1409H1312V0H1082ZM836 -193Q836 -280 814 -333T752
-434H635Q680 -386 704 -343T729 -254H641V-98H836V-193Z" />
<glyph unicode="&#x146;" glyph-name="ncommaaccent" horiz-adv-x="1139" d="M829 0V686Q829 765 818 818T780 903T712 949T606 963Q542 963 491 941T403 876T346 771T326 627V0H146V851Q146 885 146 922T144 993T142 1051T140 1082H310Q311 1077 312 1055T314
1005T317 947T318 897H321Q347 944 378 982T450 1046T544 1087T667 1102Q757 1102 822 1080T929 1012T990 894T1010 721V0H829ZM675 -193Q675 -280 653 -333T591 -434H474Q519 -386 543 -343T568 -254H480V-98H675V-193Z" />
<glyph unicode="&#x147;" glyph-name="Ncaron" horiz-adv-x="1479" d="M1082 0L328 1200Q330 1151 333 1103Q335 1062 336 1017T338 936V0H168V1409H390L1152 201L1146 299Q1144 341 1142 390T1140 485V1409H1312V0H1082ZM841 1530H637L403 1769V1790H507L739
1651H741L960 1790H1065V1769L841 1530Z" />
<glyph unicode="&#x148;" glyph-name="ncaron" horiz-adv-x="1139" d="M829 0V686Q829 765 818 818T780 903T712 949T606 963Q542 963 491 941T403 876T346 771T326 627V0H146V851Q146 885 146 922T144 993T142 1051T140 1082H310Q311 1077 312 1055T314 1005T317
947T318 897H321Q347 944 378 982T450 1046T544 1087T667 1102Q757 1102 822 1080T929 1012T990 894T1010 721V0H829ZM680 1201H476L242 1471V1491H346L578 1322H580L799 1491H904V1471L680 1201Z" />
<glyph unicode="&#x149;" glyph-name="napostrophe" horiz-adv-x="1237" d="M923 0V686Q923 765 912 818T874 903T806 949T700 963Q636 963 585 941T497 876T440 771T420 627V0H240V851Q240 885 240 922T238 993T236 1051T234 1082H404Q405 1077 406 1055T408
1005T411 947T412 897H415Q441 944 472 982T544 1046T638 1087T761 1102Q851 1102 916 1080T1023 1012T1084 894T1104 721V0H923ZM199 1264Q199 1211 195 1168T180 1088T156 1017T121 952H-2Q43 1017 67 1083T92 1212H4V1409H199V1264Z" />
<glyph unicode="&#x14a;" glyph-name="Eng" horiz-adv-x="1481" d="M941 -20Q885 -20 837 -8T750 24T679 71T623 128L750 243Q787 198 837 166T946 133Q1010 133 1049 162T1108 244T1135 374T1142 546V868Q1142 976 1123 1053T1063 1179T959 1251T808 1274Q714
1274 633 1243T491 1160T395 1038T360 891V0H169V1092Q169 1129 168 1175V1266Q167 1311 167 1349T165 1409H349L352 1356Q353 1324 354 1290T355 1221T356 1158H360Q394 1219 445 1269T562 1355T703 1409T866 1429Q990 1429 1078 1397T1223 1299T1305 1130T1332
889V542Q1332 412 1317 308T1259 131T1140 19T941 -20Z" />
<glyph unicode="&#x14b;" glyph-name="eng" horiz-adv-x="1139" d="M769 -425Q735 -425 703 -423T642 -416V-277Q655 -279 673 -281T704 -283Q742 -283 766 -273T805 -242T824 -187T829 -107V686Q829 765 818 818T780 903T712 949T606 963Q542 963 491 941T403
876T346 771T326 627V0H146V851Q146 885 146 922T144 993T142 1051T140 1082H310Q311 1077 312 1055T314 1005T317 947T318 897H321Q347 944 378 982T450 1046T544 1087T667 1102Q757 1102 822 1080T929 1012T990 894T1010 721V-134Q1010 -196 999 -249T961 -341T888
-402T769 -425Z" />
<glyph unicode="&#x14c;" glyph-name="Omacron" horiz-adv-x="1593" d="M1300 711Q1300 838 1268 942T1172 1120T1014 1234T797 1274Q671 1274 576 1234T418 1120T323 942T291 711T323 479T419 297T577 178T795 135Q927 135 1022 178T1179 297T1270 480T1300 711ZM1495
711Q1495 546 1448 411T1310 180T1090 32T795 -20Q621 -20 490 34T272 186T141 418T97 711Q97 876 143 1009T278 1235T497 1379T797 1430Q965 1430 1095 1379T1314 1234T1449 1007T1495 711ZM1070 1570H521V1697H1070V1570Z" />
<glyph unicode="&#x14d;" glyph-name="omacron" horiz-adv-x="1139" d="M864 416T864 542T845 750T788 881T696 949T574 969Q505 969 450 949T355 879T296 747T275 542Q275 416 297 334T357 202T448 133T563 113Q632 113 688 132T783 201T843 333ZM1053 542Q1053
258 928 119T565 -20Q452 -20 363 14T213 118T119 293T86 542Q86 1102 571 1102Q697 1102 788 1067T938 962T1025 787T1053 542ZM844 1236H295V1363H844V1236Z" />
<glyph unicode="&#x14e;" glyph-name="Obreve" horiz-adv-x="1593" d="M1300 711Q1300 838 1268 942T1172 1120T1014 1234T797 1274Q671 1274 576 1234T418 1120T323 942T291 711T323 479T419 297T577 178T795 135Q927 135 1022 178T1179 297T1270 480T1300 711ZM1495
711Q1495 546 1448 411T1310 180T1090 32T795 -20Q621 -20 490 34T272 186T141 418T97 711Q97 876 143 1009T278 1235T497 1379T797 1430Q965 1430 1095 1379T1314 1234T1449 1007T1495 711ZM795 1530Q721 1530 663 1550T563 1605T496 1685T463 1779H580Q597 1726
651 1696T797 1666T941 1696T1012 1779H1129Q1120 1730 1095 1685T1029 1606T929 1551T795 1530Z" />
<glyph unicode="&#x14f;" glyph-name="obreve" horiz-adv-x="1139" d="M864 416T864 542T845 750T788 881T696 949T574 969Q505 969 450 949T355 879T296 747T275 542Q275 416 297 334T357 202T448 133T563 113Q632 113 688 132T783 201T843 333ZM1053 542Q1053
258 928 119T565 -20Q452 -20 363 14T213 118T119 293T86 542Q86 1102 571 1102Q697 1102 788 1067T938 962T1025 787T1053 542ZM569 1201Q495 1201 437 1226T337 1294T270 1393T237 1510H354Q362 1467 381 1438T429 1390T493 1365T571 1357T648 1365T712 1391T759
1438T786 1510H903Q894 1449 869 1393T803 1295T703 1227T569 1201Z" />
<glyph unicode="&#x150;" glyph-name="Ohungarumlaut" horiz-adv-x="1593" d="M1300 711Q1300 838 1268 942T1172 1120T1014 1234T797 1274Q671 1274 576 1234T418 1120T323 942T291 711T323 479T419 297T577 178T795 135Q927 135 1022 178T1179 297T1270 480T1300
711ZM1495 711Q1495 546 1448 411T1310 180T1090 32T795 -20Q621 -20 490 34T272 186T141 418T97 711Q97 876 143 1009T278 1235T497 1379T797 1430Q965 1430 1095 1379T1314 1234T1449 1007T1495 711ZM861 1530V1550L1058 1777H1265V1748L955 1530H861ZM514 1530V1550L711
1777H918V1748L608 1530H514Z" />
<glyph unicode="&#x151;" glyph-name="ohungarumlaut" horiz-adv-x="1139" d="M864 416T864 542T845 750T788 881T696 949T574 969Q505 969 450 949T355 879T296 747T275 542Q275 416 297 334T357 202T448 133T563 113Q632 113 688 132T783 201T843 333ZM1053
542Q1053 258 928 119T565 -20Q452 -20 363 14T213 118T119 293T86 542Q86 1102 571 1102Q697 1102 788 1067T938 962T1025 787T1053 542ZM634 1201V1221L851 1508H1058V1479L728 1201H634ZM287 1201V1221L504 1508H711V1479L381 1201H287Z" />
<glyph unicode="&#x152;" glyph-name="OE" horiz-adv-x="2048" d="M789 145Q821 145 859 146T923 149V1260Q912 1261 896 1262T862 1263T824 1264H791Q666 1264 573 1227T417 1119T323 945T291 711Q291 582 323 478T418 299T574 185T789 145ZM999 0Q979 -3 954
-4T900 -7T843 -9T789 -10Q620 -10 491 43T274 191T142 419T97 711Q97 876 144 1007T280 1230T498 1371T791 1420Q817 1420 846 1419T903 1417T958 1413T1003 1409H1917V1253H1114V801H1857V647H1114V156H1958V0H999Z" />
<glyph unicode="&#x153;" glyph-name="oe" horiz-adv-x="1933" d="M1656 641Q1641 812 1569 890T1362 969Q1317 969 1268 955T1176 903T1105 803T1072 641H1656ZM881 416T881 542T860 750T801 881T707 949T584 969Q515 969 458 949T361 879T298 747T275 542Q275
416 298 334T362 202T457 133T573 113Q642 113 699 132T796 201T859 333ZM1070 503Q1070 418 1087 347T1141 224T1235 144T1372 115Q1489 115 1559 162T1655 281L1813 236Q1796 191 1766 146T1684 64T1557 4T1372 -20Q1235 -20 1136 25T976 163Q913 70 813 25T575
-20Q462 -20 372 14T218 118T120 293T86 542Q86 821 212 961T581 1102Q862 1102 979 925Q1046 1019 1146 1060T1365 1102Q1501 1102 1592 1058T1739 937T1818 754T1842 527V503H1070Z" />
<glyph unicode="&#x154;" glyph-name="Racute" horiz-adv-x="1479" d="M1136 1004Q1136 1068 1114 1115T1050 1193T948 1240T812 1256H359V736H820Q902 736 962 756T1060 813T1117 898T1136 1004ZM1164 0L798 585H359V0H168V1409H831Q951 1409 1043 1382T1199
1302T1295 1175T1328 1006Q1328 939 1309 874T1247 755T1140 662T984 607L1384 0H1164ZM553 1530V1550L770 1776H977V1747L667 1530H553Z" />
<glyph unicode="&#x155;" glyph-name="racute" horiz-adv-x="682" d="M142 0V830Q142 864 142 899T140 968T138 1030T136 1082H306Q307 1059 308 1030L312 969Q313 938 313 910T314 861H318Q337 923 358 968T409 1043T478 1087T575 1102Q597 1102 617 1099T648
1092V927Q630 932 606 934T552 937Q490 937 447 909T376 832T335 714T322 564V0H142ZM254 1201V1221L471 1508H678V1479L348 1201H254Z" />
<glyph unicode="&#x156;" glyph-name="Rcommaaccent" horiz-adv-x="1479" d="M1136 1004Q1136 1068 1114 1115T1050 1193T948 1240T812 1256H359V736H820Q902 736 962 756T1060 813T1117 898T1136 1004ZM1164 0L798 585H359V0H168V1409H831Q951 1409 1043 1382T1199
1302T1295 1175T1328 1006Q1328 939 1309 874T1247 755T1140 662T984 607L1384 0H1164ZM845 -193Q845 -280 823 -333T761 -434H644Q689 -386 713 -343T738 -254H650V-98H845V-193Z" />
<glyph unicode="&#x157;" glyph-name="rcommaaccent" horiz-adv-x="682" d="M142 0V830Q142 864 142 899T140 968T138 1030T136 1082H306Q307 1059 308 1030L312 969Q313 938 313 910T314 861H318Q337 923 358 968T409 1043T478 1087T575 1102Q597 1102 617 1099T648
1092V927Q630 932 606 934T552 937Q490 937 447 909T376 832T335 714T322 564V0H142ZM330 -193Q330 -280 308 -333T246 -434H129Q174 -386 198 -343T223 -254H135V-98H330V-193Z" />
<glyph unicode="&#x158;" glyph-name="Rcaron" horiz-adv-x="1479" d="M1136 1004Q1136 1068 1114 1115T1050 1193T948 1240T812 1256H359V736H820Q902 736 962 756T1060 813T1117 898T1136 1004ZM1164 0L798 585H359V0H168V1409H831Q951 1409 1043 1382T1199
1302T1295 1175T1328 1006Q1328 939 1309 874T1247 755T1140 662T984 607L1384 0H1164ZM796 1530H592L358 1769V1790H462L694 1651H696L915 1790H1020V1769L796 1530Z" />
<glyph unicode="&#x159;" glyph-name="rcaron" horiz-adv-x="682" d="M142 0V830Q142 864 142 899T140 968T138 1030T136 1082H306Q307 1059 308 1030L312 969Q313 938 313 910T314 861H318Q337 923 358 968T409 1043T478 1087T575 1102Q597 1102 617 1099T648
1092V927Q630 932 606 934T552 937Q490 937 447 909T376 832T335 714T322 564V0H142ZM494 1201H290L56 1471V1491H160L392 1322H394L613 1491H718V1471L494 1201Z" />
<glyph unicode="&#x15a;" glyph-name="Sacute" horiz-adv-x="1366" d="M1272 389Q1272 300 1238 225T1131 96T950 11T690 -20Q427 -20 280 72T93 338L278 375Q292 320 321 275T399 198T522 147T697 129Q782 129 853 143T975 188T1054 265T1083 379Q1083 448 1052
491T963 562T827 609L652 650Q576 667 534 678Q474 694 420 715T317 766T234 835T179 929T159 1053Q159 1153 199 1224T312 1342T482 1409T694 1430Q825 1430 918 1410T1075 1348T1177 1247T1239 1106L1051 1073Q1037 1124 1011 1164T941 1231T837 1272T692 1286Q594
1286 528 1269T421 1221T363 1151T345 1063Q345 1000 376 960T462 892T587 847Q638 834 738 811L868 780Q932 765 991 744T1101 693T1191 622T1250 523T1272 389ZM562 1530V1550L779 1837H986V1808L656 1530H562Z" />
<glyph unicode="&#x15b;" glyph-name="sacute" horiz-adv-x="1024" d="M950 299Q950 223 921 164T835 64T698 2T511 -20Q417 -20 342 -6T209 41T114 125T57 254L216 285Q239 198 311 158T511 117Q569 117 617 125T701 152T755 204T775 285Q775 334 752 365T688
418T588 454L460 489Q384 510 331 527Q267 548 216 582T132 668T100 796Q100 944 205 1021T513 1099Q692 1099 797 1036T931 834L769 814Q760 856 736 884T678 930T602 955T513 963Q391 963 333 926T275 814Q275 770 296 742T356 694T449 660L568 629L656 606Q701
593 743 576T823 535T889 478T933 401T950 299ZM385 1201V1221L602 1508H809V1479L479 1201H385Z" />
<glyph unicode="&#x15c;" glyph-name="Scircumflex" horiz-adv-x="1366" d="M1272 389Q1272 300 1238 225T1131 96T950 11T690 -20Q427 -20 280 72T93 338L278 375Q292 320 321 275T399 198T522 147T697 129Q782 129 853 143T975 188T1054 265T1083 379Q1083 448
1052 491T963 562T827 609L652 650Q576 667 534 678Q474 694 420 715T317 766T234 835T179 929T159 1053Q159 1153 199 1224T312 1342T482 1409T694 1430Q825 1430 918 1410T1075 1348T1177 1247T1239 1106L1051 1073Q1037 1124 1011 1164T941 1231T837 1272T692
1286Q594 1286 528 1269T421 1221T363 1151T345 1063Q345 1000 376 960T462 892T587 847Q638 834 738 811L868 780Q932 765 991 744T1101 693T1191 622T1250 523T1272 389ZM1032 1548V1528H927L708 1697H706L474 1528H370V1548L604 1818H808L1032 1548Z" />
<glyph unicode="&#x15d;" glyph-name="scircumflex" horiz-adv-x="1024" d="M950 299Q950 223 921 164T835 64T698 2T511 -20Q417 -20 342 -6T209 41T114 125T57 254L216 285Q239 198 311 158T511 117Q569 117 617 125T701 152T755 204T775 285Q775 334 752 365T688
418T588 454L460 489Q384 510 331 527Q267 548 216 582T132 668T100 796Q100 944 205 1021T513 1099Q692 1099 797 1036T931 834L769 814Q760 856 736 884T678 930T602 955T513 963Q391 963 333 926T275 814Q275 770 296 742T356 694T449 660L568 629L656 606Q701
593 743 576T823 535T889 478T933 401T950 299ZM834 1221V1201H729L510 1370H508L276 1201H172V1221L406 1491H610L834 1221Z" />
<glyph unicode="&#x15e;" glyph-name="Scedilla" horiz-adv-x="1366" d="M1272 389Q1272 300 1238 225T1131 96T950 11T690 -20Q427 -20 280 72T93 338L278 375Q292 320 321 275T399 198T522 147T697 129Q782 129 853 143T975 188T1054 265T1083 379Q1083 448
1052 491T963 562T827 609L652 650Q576 667 534 678Q474 694 420 715T317 766T234 835T179 929T159 1053Q159 1153 199 1224T312 1342T482 1409T694 1430Q825 1430 918 1410T1075 1348T1177 1247T1239 1106L1051 1073Q1037 1124 1011 1164T941 1231T837 1272T692
1286Q594 1286 528 1269T421 1221T363 1151T345 1063Q345 1000 376 960T462 892T587 847Q638 834 738 811L868 780Q932 765 991 744T1101 693T1191 622T1250 523T1272 389ZM905 -253Q905 -294 890 -327T843 -385T758 -421T631 -434Q611 -434 589 -434T541 -430V-332Q590
-338 627 -338Q668 -338 696 -332T741 -316T766 -290T774 -257Q774 -220 744 -200T641 -180H612Q598 -180 584 -182L649 0H756L717 -100Q811 -103 858 -143T905 -253Z" />
<glyph unicode="&#x15f;" glyph-name="scedilla" horiz-adv-x="1024" d="M950 299Q950 223 921 164T835 64T698 2T511 -20Q417 -20 342 -6T209 41T114 125T57 254L216 285Q239 198 311 158T511 117Q569 117 617 125T701 152T755 204T775 285Q775 334 752 365T688
418T588 454L460 489Q384 510 331 527Q267 548 216 582T132 668T100 796Q100 944 205 1021T513 1099Q692 1099 797 1036T931 834L769 814Q760 856 736 884T678 930T602 955T513 963Q391 963 333 926T275 814Q275 770 296 742T356 694T449 660L568 629L656 606Q701
593 743 576T823 535T889 478T933 401T950 299ZM701 -253Q701 -294 686 -327T639 -385T554 -421T427 -434Q407 -434 385 -434T337 -430V-332Q386 -338 423 -338Q464 -338 492 -332T537 -316T562 -290T570 -257Q570 -220 540 -200T437 -180H408Q394 -180 380 -182L445
0H552L513 -100Q607 -103 654 -143T701 -253Z" />
<glyph unicode="&#x160;" glyph-name="Scaron" horiz-adv-x="1366" d="M1272 389Q1272 300 1238 225T1131 96T950 11T690 -20Q427 -20 280 72T93 338L278 375Q292 320 321 275T399 198T522 147T697 129Q782 129 853 143T975 188T1054 265T1083 379Q1083 448 1052
491T963 562T827 609L652 650Q576 667 534 678Q474 694 420 715T317 766T234 835T179 929T159 1053Q159 1153 199 1224T312 1342T482 1409T694 1430Q825 1430 918 1410T1075 1348T1177 1247T1239 1106L1051 1073Q1037 1124 1011 1164T941 1231T837 1272T692 1286Q594
1286 528 1269T421 1221T363 1151T345 1063Q345 1000 376 960T462 892T587 847Q638 834 738 811L868 780Q932 765 991 744T1101 693T1191 622T1250 523T1272 389ZM809 1530H605L371 1769V1790H475L707 1651H709L928 1790H1033V1769L809 1530Z" />
<glyph unicode="&#x161;" glyph-name="scaron" horiz-adv-x="1024" d="M950 299Q950 223 921 164T835 64T698 2T511 -20Q417 -20 342 -6T209 41T114 125T57 254L216 285Q239 198 311 158T511 117Q569 117 617 125T701 152T755 204T775 285Q775 334 752 365T688
418T588 454L460 489Q384 510 331 527Q267 548 216 582T132 668T100 796Q100 944 205 1021T513 1099Q692 1099 797 1036T931 834L769 814Q760 856 736 884T678 930T602 955T513 963Q391 963 333 926T275 814Q275 770 296 742T356 694T449 660L568 629L656 606Q701
593 743 576T823 535T889 478T933 401T950 299ZM611 1201H407L173 1471V1491H277L509 1322H511L730 1491H835V1471L611 1201Z" />
<glyph unicode="&#x162;" glyph-name="Tcommaaccent" horiz-adv-x="1251" d="M720 1253V0H530V1253H46V1409H1204V1253H720ZM723 -193Q723 -280 701 -333T639 -434H522Q567 -386 591 -343T616 -254H528V-98H723V-193Z" />
<glyph unicode="&#x163;" glyph-name="tcommaaccent" horiz-adv-x="569" d="M554 8Q513 -3 471 -9T372 -16Q156 -16 156 229V951H31V1082H163L216 1324H336V1082H536V951H336V268Q336 190 361 159T450 127Q476 127 500 131T554 141V8ZM443 -193Q443 -280 421 -333T359
-434H242Q287 -386 311 -343T336 -254H248V-98H443V-193Z" />
<glyph unicode="&#x164;" glyph-name="Tcaron" horiz-adv-x="1251" d="M720 1253V0H530V1253H46V1409H1204V1253H720ZM727 1530H523L289 1769V1790H393L625 1651H627L846 1790H951V1769L727 1530Z" />
<glyph unicode="&#x165;" glyph-name="tcaron" horiz-adv-x="768" d="M554 8Q513 -3 471 -9T372 -16Q156 -16 156 229V951H31V1082H163L216 1324H336V1082H536V951H336V268Q336 190 361 159T450 127Q476 127 500 131T554 141V8ZM785 1378Q785 1291 763 1233T701
1127H584Q629 1175 653 1223T678 1317H590V1484H785V1378Z" />
<glyph unicode="&#x166;" glyph-name="Tbar" horiz-adv-x="1251" d="M720 1253V801H1001V647H720V0H530V647H251V801H530V1253H46V1409H1204V1253H720Z" />
<glyph unicode="&#x167;" glyph-name="tbar" horiz-adv-x="569" d="M336 516V268Q336 190 361 159T450 127Q476 127 500 131T554 141V8Q513 -3 471 -9T372 -16Q156 -16 156 229V516H31V647H156V951H31V1082H163L216 1324H336V1082H536V951H336V647H536V516H336Z" />
<glyph unicode="&#x168;" glyph-name="Utilde" horiz-adv-x="1479" d="M731 -20Q615 -20 511 11T329 107T204 273T158 512V1409H349V528Q349 421 377 347T457 225T577 157T730 135Q812 135 885 157T1013 227T1099 352T1131 541V1409H1321V530Q1321 389 1275 286T1148
114T961 13T731 -20ZM896 1530Q854 1530 812 1548T731 1589T657 1630T590 1649Q535 1649 508 1618T472 1530H381Q386 1575 396 1622T428 1709T488 1773T584 1798Q628 1798 670 1780T751 1738L824 1698Q859 1679 889 1679Q943 1679 970 1710T1006 1798H1098Q1093
1754 1083 1707T1052 1620T993 1556T896 1530Z" />
<glyph unicode="&#x169;" glyph-name="utilde" horiz-adv-x="1139" d="M314 1082V396Q314 317 325 264T363 179T431 133T537 119Q601 119 652 141T740 206T797 311T817 455V1082H997V231Q997 197 997 160T999 89T1001 31T1003 0H833Q832 5 831 27T829 77T826 135T825
185H822Q796 138 765 100T693 36T599 -5T476 -20Q386 -20 321 2T214 70T153 188T133 361V1082H314ZM738 1201Q696 1201 654 1219T573 1260T499 1301T432 1320Q377 1320 350 1289T314 1201H223Q228 1246 238 1293T270 1380T330 1444T426 1469Q470 1469 512 1451T593
1410L666 1368Q701 1350 731 1350Q785 1350 812 1381T848 1469H940Q935 1425 925 1378T894 1291T835 1227T738 1201Z" />
<glyph unicode="&#x16a;" glyph-name="Umacron" horiz-adv-x="1479" d="M731 -20Q615 -20 511 11T329 107T204 273T158 512V1409H349V528Q349 421 377 347T457 225T577 157T730 135Q812 135 885 157T1013 227T1099 352T1131 541V1409H1321V530Q1321 389 1275 286T1148
114T961 13T731 -20ZM1015 1565H466V1692H1015V1565Z" />
<glyph unicode="&#x16b;" glyph-name="umacron" horiz-adv-x="1139" d="M314 1082V396Q314 317 325 264T363 179T431 133T537 119Q601 119 652 141T740 206T797 311T817 455V1082H997V231Q997 197 997 160T999 89T1001 31T1003 0H833Q832 5 831 27T829 77T826
135T825 185H822Q796 138 765 100T693 36T599 -5T476 -20Q386 -20 321 2T214 70T153 188T133 361V1082H314ZM840 1236H291V1363H840V1236Z" />
<glyph unicode="&#x16c;" glyph-name="Ubreve" horiz-adv-x="1479" d="M731 -20Q615 -20 511 11T329 107T204 273T158 512V1409H349V528Q349 421 377 347T457 225T577 157T730 135Q812 135 885 157T1013 227T1099 352T1131 541V1409H1321V530Q1321 389 1275 286T1148
114T961 13T731 -20ZM738 1530Q664 1530 606 1550T506 1605T439 1685T406 1779H523Q540 1726 594 1696T740 1666T884 1696T955 1779H1072Q1063 1730 1038 1685T972 1606T872 1551T738 1530Z" />
<glyph unicode="&#x16d;" glyph-name="ubreve" horiz-adv-x="1139" d="M314 1082V396Q314 317 325 264T363 179T431 133T537 119Q601 119 652 141T740 206T797 311T817 455V1082H997V231Q997 197 997 160T999 89T1001 31T1003 0H833Q832 5 831 27T829 77T826 135T825
185H822Q796 138 765 100T693 36T599 -5T476 -20Q386 -20 321 2T214 70T153 188T133 361V1082H314ZM564 1201Q490 1201 432 1226T332 1294T265 1393T232 1510H349Q357 1467 376 1438T424 1390T488 1365T566 1357T643 1365T707 1391T754 1438T781 1510H898Q889 1449
864 1393T798 1295T698 1227T564 1201Z" />
<glyph unicode="&#x16e;" glyph-name="Uring" horiz-adv-x="1479" d="M731 -20Q615 -20 511 11T329 107T204 273T158 512V1409H349V528Q349 421 377 347T457 225T577 157T730 135Q812 135 885 157T1013 227T1099 352T1131 541V1409H1321V530Q1321 389 1275 286T1148
114T961 13T731 -20ZM874 1613Q874 1641 864 1665T835 1708T793 1736T740 1747Q711 1747 687 1737T644 1708T616 1666T605 1613Q605 1584 615 1560T644 1516T686 1487T740 1476Q768 1476 792 1486T835 1516T863 1559T874 1613ZM982 1663T982 1613T963 1519T911
1442T834 1390T740 1371T646 1390T569 1442T517 1519T498 1613T517 1707T569 1783T646 1835T740 1854T834 1835T911 1784T963 1707Z" />
<glyph unicode="&#x16f;" glyph-name="uring" horiz-adv-x="1139" d="M314 1082V396Q314 317 325 264T363 179T431 133T537 119Q601 119 652 141T740 206T797 311T817 455V1082H997V231Q997 197 997 160T999 89T1001 31T1003 0H833Q832 5 831 27T829 77T826 135T825
185H822Q796 138 765 100T693 36T599 -5T476 -20Q386 -20 321 2T214 70T153 188T133 361V1082H314ZM703 1410Q703 1438 693 1462T664 1505T622 1533T569 1544Q540 1544 516 1534T473 1505T445 1463T434 1410Q434 1381 444 1357T473 1313T515 1284T569 1273Q597
1273 621 1283T664 1313T692 1356T703 1410ZM811 1460T811 1410T792 1316T740 1239T663 1187T569 1168T475 1187T398 1239T346 1316T327 1410T346 1504T398 1580T475 1632T569 1651T663 1632T740 1581T792 1504Z" />
<glyph unicode="&#x170;" glyph-name="Uhungarumlaut" horiz-adv-x="1479" d="M731 -20Q615 -20 511 11T329 107T204 273T158 512V1409H349V528Q349 421 377 347T457 225T577 157T730 135Q812 135 885 157T1013 227T1099 352T1131 541V1409H1321V530Q1321 389
1275 286T1148 114T961 13T731 -20ZM792 1530V1550L989 1777H1196V1748L886 1530H792ZM445 1530V1550L642 1777H849V1748L539 1530H445Z" />
<glyph unicode="&#x171;" glyph-name="uhungarumlaut" horiz-adv-x="1139" d="M314 1082V396Q314 317 325 264T363 179T431 133T537 119Q601 119 652 141T740 206T797 311T817 455V1082H997V231Q997 197 997 160T999 89T1001 31T1003 0H833Q832 5 831 27T829 77T826
135T825 185H822Q796 138 765 100T693 36T599 -5T476 -20Q386 -20 321 2T214 70T153 188T133 361V1082H314ZM630 1201V1221L847 1508H1054V1479L724 1201H630ZM283 1201V1221L500 1508H707V1479L377 1201H283Z" />
<glyph unicode="&#x172;" glyph-name="Uogonek" horiz-adv-x="1479" d="M731 -20Q615 -20 511 11T329 107T204 273T158 512V1409H349V528Q349 421 377 347T457 225T577 157T730 135Q812 135 885 157T1013 227T1099 352T1131 541V1409H1321V530Q1321 389 1275 286T1148
114T961 13T731 -20ZM974 -400Q946 -412 911 -419T835 -427Q730 -427 677 -376T624 -240Q624 -193 641 -154T682 -84T732 -32T779 0H912Q887 -14 861 -36T814 -88T779 -153T765 -227Q765 -269 789 -293T859 -317Q888 -317 917 -311T974 -293V-400Z" />
<glyph unicode="&#x173;" glyph-name="uogonek" horiz-adv-x="1139" d="M314 1082V396Q314 317 325 264T363 179T431 133T537 119Q601 119 652 141T740 206T797 311T817 455V1082H997V231Q997 197 997 160T999 89T1001 31T1003 0H833Q832 5 831 27T829 77T826
135T825 185H822Q796 138 765 100T693 36T599 -5T476 -20Q386 -20 321 2T214 70T153 188T133 361V1082H314ZM1029 -400Q1001 -412 966 -419T890 -427Q785 -427 732 -376T679 -240Q679 -193 696 -154T737 -84T787 -32T834 0H967Q942 -14 916 -36T869 -88T834 -153T820
-227Q820 -269 844 -293T914 -317Q943 -317 972 -311T1029 -293V-400Z" />
<glyph unicode="&#x174;" glyph-name="Wcircumflex" horiz-adv-x="1933" d="M1511 0H1283L1039 895Q1028 933 1016 985Q1006 1026 993 1084L969 1196L944 1083L921 984Q909 933 898 895L652 0H424L9 1409H208L461 514L494 389Q509 327 520 278L544 168L575 304Q582
332 589 363T604 424L618 482L632 532L877 1409H1060L1305 532L1318 482L1334 424Q1341 395 1348 364T1362 305Q1378 238 1393 168Q1394 168 1402 202L1422 289L1448 402Q1460 448 1478 514L1727 1409H1926L1511 0ZM1295 1550V1530H1190L971 1669H969L737 1530H633V1550L867
1790H1071L1295 1550Z" />
<glyph unicode="&#x175;" glyph-name="wcircumflex" horiz-adv-x="1479" d="M1174 0H965L792 698Q784 725 776 765L759 843Q749 887 740 934Q731 889 721 845Q713 807 704 766Q694 727 686 694L508 0H300L-3 1082H175L358 347Q365 324 372 290L386 225L401 149Q409
187 418 223L434 286Q442 318 448 339L644 1082H837L1026 339Q1033 313 1041 280L1056 218L1072 149L1088 223L1102 288Q1108 314 1117 347L1308 1082H1484L1174 0ZM1066 1221V1201H961L742 1370H740L508 1201H404V1221L638 1491H842L1066 1221Z" />
<glyph unicode="&#x176;" glyph-name="Ycircumflex" horiz-adv-x="1366" d="M777 584V0H587V584L45 1409H255L684 738L1111 1409H1321L777 584ZM1009 1550V1530H904L685 1669H683L451 1530H347V1550L581 1790H785L1009 1550Z" />
<glyph unicode="&#x177;" glyph-name="ycircumflex" horiz-adv-x="1024" d="M604 0Q566 -98 527 -176T438 -310T329 -395T191 -425Q157 -425 128 -423T67 -414V-279Q86 -282 110 -283T151 -285Q230 -285 298 -226T417 -38L434 5L5 1082H197L425 484L450 412L482
322L509 241Q521 205 523 196Q526 207 538 240L564 312L593 393L618 464L830 1082H1020L604 0ZM844 1221V1201H739L520 1370H518L286 1201H182V1221L416 1491H620L844 1221Z" />
<glyph unicode="&#x178;" glyph-name="Ydieresis" horiz-adv-x="1366" d="M777 584V0H587V584L45 1409H255L684 738L1111 1409H1321L777 584ZM405 1530V1714H570V1530H405ZM799 1530V1714H962V1530H799Z" />
<glyph unicode="&#x179;" glyph-name="Zacute" horiz-adv-x="1251" d="M1187 0H65V143L923 1253H138V1409H1140V1270L282 156H1187V0ZM488 1530V1550L705 1776H912V1747L602 1530H488Z" />
<glyph unicode="&#x17a;" glyph-name="zacute" horiz-adv-x="1024" d="M49 0V137L710 943H89V1082H913V945L251 139H950V0H49ZM381 1201V1221L598 1508H805V1479L475 1201H381Z" />
<glyph unicode="&#x17b;" glyph-name="Zdotaccent" horiz-adv-x="1251" d="M1187 0H65V143L923 1253H138V1409H1140V1270L282 156H1187V0ZM536 1605V1777H716V1605H536Z" />
<glyph unicode="&#x17c;" glyph-name="zdotaccent" horiz-adv-x="1024" d="M49 0V137L710 943H89V1082H913V945L251 139H950V0H49ZM409 1312V1484H589V1312H409Z" />
<glyph unicode="&#x17d;" glyph-name="Zcaron" horiz-adv-x="1251" d="M1187 0H65V143L923 1253H138V1409H1140V1270L282 156H1187V0ZM750 1530H546L312 1769V1790H416L648 1651H650L869 1790H974V1769L750 1530Z" />
<glyph unicode="&#x17e;" glyph-name="zcaron" horiz-adv-x="1024" d="M49 0V137L710 943H89V1082H913V945L251 139H950V0H49ZM594 1201H390L156 1471V1491H260L492 1322H494L713 1491H818V1471L594 1201Z" />
<glyph unicode="&#x17f;" glyph-name="longs" horiz-adv-x="455" d="M318 0H138V1204Q138 1263 149 1313T189 1401T270 1460T402 1482Q434 1482 468 1479T529 1470V1333Q512 1336 490 1338T449 1341Q409 1341 384 1330T344 1299T324 1248T318 1179V0Z" />
<glyph unicode="&#x192;" glyph-name="florin" horiz-adv-x="1139" d="M932 1312Q915 1317 884 1322T822 1327T768 1318T729 1288T700 1236T679 1159L653 1022H864L839 891H626L372 -434H192L446 891H294L321 1022H472L501 1174Q513 1233 533 1284T588 1373T678
1432T814 1454Q846 1454 887 1449T963 1434L932 1312Z" />
<glyph unicode="&#x1fa;" glyph-name="Aringacute" horiz-adv-x="1366" d="M571 1657V1673L788 1854H995V1831L685 1657H571ZM818 1392Q818 1417 808 1439T779 1477T737 1503T684 1513Q655 1513 631 1504T588 1478T560 1439T549 1392Q549 1366 559 1344T588 1305T630
1277Q651 1269 675 1268H684Q712 1268 736 1277T779 1304T807 1344T818 1392ZM768 923Q748 969 738 996L712 1063L694 1114Q686 1134 685 1138Q683 1134 676 1114T658 1062L632 994L602 922L422 505H949L768 923ZM926 1437T926 1392T907 1308T855 1238Q839 1223
821 1212L1362 0H1167L1006 371H364L202 0H4L552 1209Q531 1221 513 1238Q480 1268 461 1307T442 1392T461 1476T513 1545T590 1592T684 1609T778 1592T855 1546T907 1477Z" />
<glyph unicode="&#x1fb;" glyph-name="aringacute" horiz-adv-x="1139" d="M455 115Q541 115 605 146T712 227T776 334T797 445V534L600 530Q531 529 474 520Q415 512 370 487T299 417T272 299Q272 211 319 163T455 115ZM414 -20Q251 -20 169 66T87 302Q87 409
127 477T233 585T383 639T554 656L797 660V719Q797 786 783 833T740 909T668 951T565 965Q513 965 471 958T398 931T348 878T323 793L135 810Q145 874 173 927T252 1020T381 1080T569 1102Q773 1102 876 1009T979 738V272Q979 192 1000 152T1080 111Q1095 111 1110
113T1139 118V6Q1105 -2 1072 -6T1000 -10Q949 -10 913 3T853 44T818 112T803 207H797Q768 155 734 113T653 42T549 -4T414 -20ZM703 1239Q703 1267 693 1291T664 1334T622 1362T569 1373Q540 1373 516 1363T473 1334T445 1292T434 1239Q434 1210 444 1186T473
1142T515 1113T569 1102Q597 1102 621 1112T664 1142T692 1185T703 1239ZM811 1289T811 1239T792 1145T740 1068T663 1016T569 997T475 1016T398 1068T346 1145T327 1239T346 1333T398 1409T475 1461T569 1480T663 1461T740 1410T792 1333ZM427 1547V1567L644 1854H851V1825L521
1547H427Z" />
<glyph unicode="&#x1fc;" glyph-name="AEacute" horiz-adv-x="2048" d="M969 1262H818Q817 1259 809 1242L790 1199L766 1145L740 1090L719 1046Q710 1027 708 1022L491 561H969V1262ZM969 0V412H421L223 0H24L710 1409H1919V1253H1160V801H1859V647H1160V156H1960V0H969ZM1068
1530V1550L1285 1776H1492V1747L1182 1530H1068Z" />
<glyph unicode="&#x1fd;" glyph-name="aeacute" horiz-adv-x="1821" d="M1544 641Q1529 812 1457 890T1250 969Q1205 969 1157 955T1069 903T1001 803T970 641H1544ZM786 534L591 530Q551 529 511 526T432 514T361 490T304 449T265 387T251 299Q251 212 301 164T444
115Q534 115 598 146T704 227T766 334T786 445V534ZM968 503V486Q969 404 986 336T1038 219T1127 143T1260 115Q1377 115 1447 162T1543 281L1701 236Q1684 191 1654 146T1572 64T1445 4T1260 -20Q939 -20 837 237Q808 186 771 140T683 58T564 1T402 -20Q235 -20
151 66T66 302Q66 373 85 427T137 520T216 584T315 626T427 648T546 656L786 660V719Q786 786 773 833T732 909T659 951T554 965Q500 965 456 958T380 931T329 878T302 793L114 810Q124 874 153 927T234 1020T366 1080T558 1102Q686 1102 772 1067T907 963Q970
1037 1058 1069T1253 1102Q1389 1102 1480 1058T1627 937T1706 754T1730 527V503H968ZM759 1201V1221L976 1508H1183V1479L853 1201H759Z" />
<glyph unicode="&#x1fe;" glyph-name="Oslashacute" horiz-adv-x="1593" d="M291 711Q291 598 316 503T392 333L1099 1186Q1040 1228 965 1251T797 1274Q671 1274 576 1234T418 1120T323 942T291 711ZM1300 711Q1300 823 1276 915T1202 1079L493 226Q552 182 627
159T795 135Q927 135 1022 178T1179 297T1270 480T1300 711ZM1495 711Q1495 546 1448 411T1310 180T1090 32T795 -20Q668 -20 565 9T381 92L261 -53H71L271 188Q183 285 140 418T97 711Q97 876 143 1009T278 1235T497 1379T797 1430Q922 1430 1025 1402T1211 1320L1332
1466H1524L1323 1224Q1408 1130 1451 1001T1495 711ZM659 1530V1550L876 1776H1083V1747L773 1530H659Z" />
<glyph unicode="&#x1ff;" glyph-name="oslashacute" horiz-adv-x="1251" d="M334 542Q334 412 358 327L840 888Q803 933 751 951T633 969Q564 969 509 949T414 879T355 747T334 542ZM923 542Q923 610 917 664T900 763L417 201Q455 152 507 133T622 113Q691 113
747 132T842 201T902 333T923 542ZM1112 542Q1112 258 987 119T624 -20Q527 -20 449 4T311 78L211 -38H44L228 176Q187 244 166 335T145 542Q145 1102 630 1102Q733 1102 811 1079T946 1011L1037 1116H1204L1031 915Q1073 846 1092 754T1112 542ZM506 1201V1221L723
1508H930V1479L600 1201H506Z" />
<glyph unicode="&#x2c6;" glyph-name="circumflex" horiz-adv-x="682" d="M662 1221V1201H557L338 1370H336L104 1201H0V1221L234 1491H438L662 1221Z" />
<glyph unicode="&#x2c7;" glyph-name="caron" horiz-adv-x="682" d="M438 1201H234L0 1471V1491H104L336 1322H338L557 1491H662V1471L438 1201Z" />
<glyph unicode="&#x2c9;" glyph-name="uni02C9" horiz-adv-x="682" d="M600 1236H51V1363H600V1236Z" />
<glyph unicode="&#x2d8;" glyph-name="breve" horiz-adv-x="682" d="M297 1201Q223 1201 165 1226T65 1294T-2 1393T-35 1510H82Q90 1467 109 1438T157 1390T221 1365T299 1357T376 1365T440 1391T487 1438T514 1510H631Q622 1449 597 1393T531 1295T431 1227T297 1201Z" />
<glyph unicode="&#x2d9;" glyph-name="dotaccent" horiz-adv-x="682" d="M156 1312V1484H336V1312H156Z" />
<glyph unicode="&#x2da;" glyph-name="ring" horiz-adv-x="682" d="M427 1410Q427 1438 417 1462T388 1505T346 1533T293 1544Q264 1544 240 1534T197 1505T169 1463T158 1410Q158 1381 168 1357T197 1313T239 1284T293 1273Q321 1273 345 1283T388 1313T416 1356T427
1410ZM535 1460T535 1410T516 1316T464 1239T387 1187T293 1168T199 1187T122 1239T70 1316T51 1410T70 1504T122 1580T199 1632T293 1651T387 1632T464 1581T516 1504Z" />
<glyph unicode="&#x2db;" glyph-name="ogonek" horiz-adv-x="682" d="M430 -400Q402 -412 367 -419T291 -427Q186 -427 133 -376T80 -240Q80 -193 97 -154T138 -84T188 -32T235 0H368Q343 -14 317 -36T270 -88T235 -153T221 -227Q221 -269 245 -293T315 -317Q344
-317 373 -311T430 -293V-400Z" />
<glyph unicode="&#x2dc;" glyph-name="tilde" horiz-adv-x="682" d="M492 1201Q450 1201 408 1219T327 1260T253 1301T186 1320Q131 1320 104 1289T68 1201H-23Q-18 1246 -8 1293T24 1380T84 1444T180 1469Q224 1469 266 1451T347 1410L420 1368Q455 1350 485
1350Q539 1350 566 1381T602 1469H694Q689 1425 679 1378T648 1291T589 1227T492 1201Z" />
<glyph unicode="&#x2dd;" glyph-name="hungarumlaut" horiz-adv-x="682" d="M369 1201V1221L586 1508H793V1479L463 1201H369ZM22 1201V1221L239 1508H446V1479L116 1201H22Z" />
<glyph unicode="&#x37e;" glyph-name="semicolon" horiz-adv-x="569" d="M190 875V1082H385V875H190ZM385 207V51Q385 -2 381 -45T366 -126T342 -197T307 -262H184Q229 -197 253 -131T278 0H190V207H385Z" />
<glyph unicode="&#x384;" glyph-name="tonos" horiz-adv-x="682" d="M205 1218V1251L274 1543H481V1506L280 1218H205Z" />
<glyph unicode="&#x385;" glyph-name="dieresistonos" horiz-adv-x="682" d="M501 1231V1403H651V1231H501ZM29 1231V1403H179V1231H29ZM250 1200V1233L319 1601H506V1564L325 1200H250Z" />
<glyph unicode="&#x386;" glyph-name="Alphatonos" horiz-adv-x="1367" d="M768 1026Q748 1078 738 1107L712 1182L694 1238Q686 1260 685 1265Q683 1260 676 1237T658 1180L632 1105L602 1024L422 561H949L768 1026ZM1167 0L1006 412H364L202 0H4L579 1409H796L1362
0H1167ZM57 1086V1119L126 1411H333V1374L132 1086H57Z" />
<glyph unicode="&#x387;" glyph-name="anoteleia" horiz-adv-x="569" d="M187 446V666H382V446H187Z" />
<glyph unicode="&#x388;" glyph-name="Epsilontonos" horiz-adv-x="1606" d="M408 0V1409H1477V1253H599V801H1417V647H599V156H1518V0H408ZM-11 1086V1119L58 1411H265V1374L64 1086H-11Z" />
<glyph unicode="&#x389;" glyph-name="Etatonos" horiz-adv-x="1716" d="M1358 0V653H596V0H405V1409H596V813H1358V1409H1549V0H1358ZM-14 1086V1119L55 1411H262V1374L61 1086H-14Z" />
<glyph unicode="&#x38a;" glyph-name="Iotatonos" horiz-adv-x="786" d="M406 0V1409H597V0H406ZM-24 1086V1119L45 1411H252V1374L51 1086H-24Z" />
<glyph unicode="&#x38c;" glyph-name="Omicrontonos" horiz-adv-x="1586" d="M1552 711Q1552 838 1520 942T1424 1120T1266 1234T1049 1274Q923 1274 828 1234T670 1120T575 942T543 711T575 479T671 297T829 178T1047 135Q1179 135 1274 178T1431 297T1522 480T1552
711ZM1747 711Q1747 546 1700 411T1562 180T1342 32T1047 -20Q873 -20 742 34T524 186T393 418T349 711Q349 876 395 1009T530 1235T749 1379T1049 1430Q1217 1430 1347 1379T1566 1234T1701 1007T1747 711ZM-69 1086V1119L0 1411H207V1374L6 1086H-69Z" />
<glyph unicode="&#x38e;" glyph-name="Upsilontonos" horiz-adv-x="1752" d="M1163 584V0H973V584L431 1409H641L1070 738L1497 1409H1707L1163 584ZM65 1086V1119L134 1411H341V1374L140 1086H65Z" />
<glyph unicode="&#x38f;" glyph-name="Omegatonos" horiz-adv-x="1541" d="M624 1430T775 1430T1046 1387T1251 1263T1380 1065T1425 801Q1425 695 1396 600T1312 421T1179 268T1001 145Q1043 147 1082 150L1150 154Q1186 156 1209 156H1453V0H864V224Q960 275
1029 338T1143 472T1209 623T1230 788Q1230 904 1200 994T1111 1147T969 1241T776 1274Q667 1274 582 1242T439 1147T351 995T320 788Q320 703 341 624T406 473T520 338T686 224V0H97V156H341Q364 156 400 154L468 150Q507 147 549 145Q450 199 372 268T239 420T155
599T125 801Q125 948 170 1065T299 1263T503 1387ZM-69 1086V1119L0 1411H207V1374L6 1086H-69Z" />
<glyph unicode="&#x390;" glyph-name="iotadieresistonos" horiz-adv-x="455" d="M199 0Q184 16 172 42T153 101T141 168T137 236V1082H317V227Q317 195 322 163T338 101T364 45T397 0H199ZM648 1231V1403H798V1231H648ZM176 1231V1403H326V1231H176ZM397 1200V1233L466
1601H653V1564L472 1200H397Z" />
<glyph unicode="&#x391;" glyph-name="Alpha" horiz-adv-x="1366" d="M768 1026Q748 1078 738 1107L712 1182L694 1238Q686 1260 685 1265Q683 1260 676 1237T658 1180L632 1105L602 1024L422 561H949L768 1026ZM1167 0L1006 412H364L202 0H4L579 1409H796L1362 0H1167Z" />
<glyph unicode="&#x392;" glyph-name="Beta" horiz-adv-x="1366" d="M1065 412Q1065 479 1041 526T970 603T860 647T715 661H359V153H730Q803 153 864 165T970 207T1040 287T1065 412ZM984 1044Q984 1158 906 1207T680 1256H359V810H680Q764 810 822 826T916 873T968
947T984 1044ZM1258 397Q1258 290 1216 215T1103 92T938 22T740 0H168V1409H680Q797 1409 889 1390T1045 1328T1142 1222T1176 1067Q1176 1008 1160 956T1110 862T1026 789T908 743Q993 733 1058 704T1168 630T1235 526T1258 397Z" />
<glyph unicode="&#x393;" glyph-name="Gamma" horiz-adv-x="1128" d="M1071 1410V1254H359V1H168V1410H1071Z" />
<glyph unicode="&#x394;" glyph-name="uni0394" horiz-adv-x="1368" d="M1106 156L768 1018Q749 1066 738 1099Q723 1140 712 1174L694 1233Q686 1257 685 1265Q683 1257 676 1233T658 1173L632 1097Q620 1060 602 1016L263 156H1106ZM62 141L579 1409H796L1306
141V0H61L62 141Z" />
<glyph unicode="&#x395;" glyph-name="Epsilon" horiz-adv-x="1366" d="M168 0V1409H1237V1253H359V801H1177V647H359V156H1278V0H168Z" />
<glyph unicode="&#x396;" glyph-name="Zeta" horiz-adv-x="1251" d="M1187 0H65V143L923 1253H138V1409H1140V1270L282 156H1187V0Z" />
<glyph unicode="&#x397;" glyph-name="Eta" horiz-adv-x="1479" d="M1121 0V653H359V0H168V1409H359V813H1121V1409H1312V0H1121Z" />
<glyph unicode="&#x398;" glyph-name="Theta" horiz-adv-x="1593" d="M502 794H1089V634H502V794ZM1300 711Q1300 838 1268 942T1172 1120T1014 1234T797 1274Q671 1274 576 1234T418 1120T323 942T291 711T323 479T419 297T577 178T795 135Q927 135 1022 178T1179
297T1270 480T1300 711ZM1495 711Q1495 546 1448 411T1310 180T1090 32T795 -20Q621 -20 490 34T272 186T141 418T97 711Q97 876 143 1009T278 1235T497 1379T797 1430Q965 1430 1095 1379T1314 1234T1449 1007T1495 711Z" />
<glyph unicode="&#x399;" glyph-name="Iota" horiz-adv-x="569" d="M189 0V1409H380V0H189Z" />
<glyph unicode="&#x39a;" glyph-name="Kappa" horiz-adv-x="1366" d="M1106 0L543 680L359 540V0H168V1409H359V703L1038 1409H1263L663 797L1343 0H1106Z" />
<glyph unicode="&#x39b;" glyph-name="Lambda" horiz-adv-x="1368" d="M1358 1H1157L769 993Q752 1040 738 1084L711 1164L685 1242L658 1162L631 1082L601 993L211 1H10L585 1410H783L1358 1Z" />
<glyph unicode="&#x39c;" glyph-name="Mu" horiz-adv-x="1706" d="M1366 0V940Q1366 991 1367 1044Q1368 1091 1370 1141Q1372 1200 1375 1240L1346 1139L1318 1048Q1303 1003 1287 960L923 0H789L420 960Q414 975 408 995L394 1038L378 1084L364 1130Q347 1183
331 1240Q332 1184 334 1129Q336 1065 337 1030Q338 979 338 940V0H168V1409H419L794 432Q801 412 811 381T830 316L846 254Q854 224 857 208Q860 224 868 254T886 317L907 381Q917 412 925 432L1293 1409H1538V0H1366Z" />
<glyph unicode="&#x39d;" glyph-name="Nu" horiz-adv-x="1479" d="M1082 0L328 1200Q330 1151 333 1103Q335 1062 336 1017T338 936V0H168V1409H390L1152 201L1146 299Q1144 341 1142 390T1140 485V1409H1312V0H1082Z" />
<glyph unicode="&#x39e;" glyph-name="Xi" horiz-adv-x="1331" d="M1086 801V647H245V801H1086ZM1241 156V0H90V156H1241ZM125 1409H1206V1253H125V1409Z" />
<glyph unicode="&#x39f;" glyph-name="Omicron" horiz-adv-x="1593" d="M1300 711Q1300 838 1268 942T1172 1120T1014 1234T797 1274Q671 1274 576 1234T418 1120T323 942T291 711T323 479T419 297T577 178T795 135Q927 135 1022 178T1179 297T1270 480T1300 711ZM1495
711Q1495 546 1448 411T1310 180T1090 32T795 -20Q621 -20 490 34T272 186T141 418T97 711Q97 876 143 1009T278 1235T497 1379T797 1430Q965 1430 1095 1379T1314 1234T1449 1007T1495 711Z" />
<glyph unicode="&#x3a0;" glyph-name="Pi" horiz-adv-x="1479" d="M1121 0V1248H359V0H168V1409H1312V0H1121Z" />
<glyph unicode="&#x3a1;" glyph-name="Rho" horiz-adv-x="1366" d="M1066 983Q1066 1117 984 1186T738 1256H359V700H746Q911 700 988 773T1066 983ZM1258 985Q1258 893 1228 814T1137 676T985 583T773 549H359V0H168V1409H761Q886 1409 979 1379T1134 1293T1227
1159T1258 985Z" />
<glyph unicode="&#x3a3;" glyph-name="Sigma" horiz-adv-x="1266" d="M108 0V162L646 741L125 1248V1409H1124V1253H340L798 808V684L308 156H1185V0H108Z" />
<glyph unicode="&#x3a4;" glyph-name="Tau" horiz-adv-x="1251" d="M720 1253V0H530V1253H46V1409H1204V1253H720Z" />
<glyph unicode="&#x3a5;" glyph-name="Upsilon" horiz-adv-x="1366" d="M777 584V0H587V584L45 1409H255L684 738L1111 1409H1321L777 584Z" />
<glyph unicode="&#x3a6;" glyph-name="Phi" horiz-adv-x="1634" d="M309 732Q309 644 330 574T396 455T509 380T669 353H725V1099H673Q491 1099 400 1009T309 732ZM1326 732Q1326 919 1234 1009T958 1099H910V353H966Q1058 353 1126 379T1238 455T1304 574T1326
732ZM1518 736Q1518 631 1486 537T1389 372T1225 258T993 216H910V-11H725V216H642Q509 216 411 258T247 371T149 537T117 736Q117 849 150 941T250 1099T417 1201T653 1237H725V1419H910V1237H981Q1116 1237 1217 1201T1384 1100T1484 942T1518 736Z" />
<glyph unicode="&#x3a7;" glyph-name="Chi" horiz-adv-x="1366" d="M1112 0L689 616L257 0H46L582 732L87 1409H298L690 856L1071 1409H1282L800 739L1323 0H1112Z" />
<glyph unicode="&#x3a8;" glyph-name="Psi" horiz-adv-x="1711" d="M763 0V427H680Q547 427 447 469T279 582T179 747T145 946V1409H336V942Q336 862 359 794T429 675T545 597T707 568H763V1409H948V568H1004Q1099 568 1169 596T1284 675T1352 793T1375 942V1409H1566V946Q1566
842 1532 748T1431 582T1264 469T1031 427H948V0H763Z" />
<glyph unicode="&#x3a9;" glyph-name="uni03A9" horiz-adv-x="1531" d="M614 1430T765 1430T1036 1387T1241 1263T1370 1065T1415 801Q1415 695 1386 600T1302 421T1169 268T991 145Q1033 147 1072 150L1140 154Q1176 156 1199 156H1443V0H854V224Q950 275 1019
338T1133 472T1199 623T1220 788Q1220 904 1190 994T1101 1147T959 1241T766 1274Q657 1274 572 1242T429 1147T341 995T310 788Q310 703 331 624T396 473T510 338T676 224V0H87V156H331Q354 156 390 154L458 150Q497 147 539 145Q440 199 362 268T229 420T145
599T115 801Q115 948 160 1065T289 1263T493 1387Z" />
<glyph unicode="&#x3aa;" glyph-name="Iotadieresis" horiz-adv-x="569" d="M189 0V1409H380V0H189ZM263 1530V1714H428V1530H263ZM657 1530V1714H820V1530H657Z" />
<glyph unicode="&#x3ab;" glyph-name="Upsilondieresis" horiz-adv-x="1366" d="M408 1530V1714H573V1530H408ZM802 1530V1714H965V1530H802ZM777 584V0H587L589 584L45 1409H250L684 738L1116 1409H1321L777 584Z" />
<glyph unicode="&#x3ac;" glyph-name="alphatonos" horiz-adv-x="1184" d="M275 542Q275 430 289 350T332 219T408 143T521 119Q575 119 625 145T716 224T787 358T832 546Q820 632 798 709T740 843T653 935T532 969Q466 969 418 946T338 872T291 740T275 542ZM843
237Q817 181 785 134T709 53T610 -1T484 -20Q279 -20 183 118T86 536Q86 820 194 961T512 1102Q581 1102 637 1083T736 1029T810 948T862 847H864Q868 868 875 896T891 955T912 1019T937 1082H1125Q1103 1035 1080 971T1038 838T1003 699T983 571Q986 468 997 381T1024
221T1058 94T1094 0H911Q900 28 890 61T871 126T857 188T847 237H843ZM494 1218V1251L563 1543H770V1506L569 1218H494Z" />
<glyph unicode="&#x3ad;" glyph-name="epsilontonos" horiz-adv-x="913" d="M456 114Q510 114 558 129T645 169T716 221T769 275L874 175Q842 136 800 101T705 39T587 -4T444 -20Q348 -20 278 3T161 68T93 168T70 295Q70 353 91 400T148 482T232 538T334 564V566Q283
572 241 592T168 644T120 719T103 813Q103 875 128 928T200 1019T316 1080T471 1102Q589 1102 684 1059T847 917L719 829Q672 900 610 934T472 968Q381 968 333 926T285 809Q285 752 312 717T388 664T502 639T643 633V498Q571 498 502 493T378 467T290 407T257
298Q257 253 271 219T312 161T375 126T456 114ZM407 1218V1251L476 1543H683V1506L482 1218H407Z" />
<glyph unicode="&#x3ae;" glyph-name="etatonos" horiz-adv-x="1139" d="M825 -424V686Q825 765 814 818T776 903T708 949T602 963Q538 963 487 941T399 876T342 771T322 627V0H142V851Q142 919 131 979T106 1082H276Q285 1061 292 1037T304 989T311 941T314 897H317Q343
944 374 982T446 1046T540 1087T663 1102Q753 1102 818 1080T925 1012T986 894T1006 721V-424H825ZM518 1218V1251L587 1543H794V1506L593 1218H518Z" />
<glyph unicode="&#x3af;" glyph-name="iotatonos" horiz-adv-x="455" d="M199 0Q184 16 172 42T153 101T141 168T137 236V1082H317V227Q317 195 322 163T338 101T364 45T397 0H199ZM414 1218V1251L483 1543H690V1506L489 1218H414Z" />
<glyph unicode="&#x3b0;" glyph-name="upsilondieresistonos" horiz-adv-x="1120" d="M1022 571Q1022 434 996 325T913 139T768 21T557 -20Q448 -20 368 5T236 83T159 220T133 419V1082H314V413Q314 267 372 193T565 119Q638 119 690 144T774 223T822 362T837
567Q837 635 827 708T801 851T764 981T723 1082H911Q929 1042 949 986T985 862T1011 721T1022 571ZM723 1231V1403H873V1231H723ZM251 1231V1403H401V1231H251ZM472 1200V1233L541 1601H728V1564L547 1200H472Z" />
<glyph unicode="&#x3b1;" glyph-name="alpha" horiz-adv-x="1184" d="M275 542Q275 430 289 350T332 219T408 143T521 119Q575 119 625 145T716 224T787 358T832 546Q820 632 798 709T740 843T653 935T532 969Q466 969 418 946T338 872T291 740T275 542ZM843 237Q817
181 785 134T709 53T610 -1T484 -20Q279 -20 183 118T86 536Q86 820 194 961T512 1102Q581 1102 637 1083T736 1029T810 948T862 847H864Q868 868 875 896T891 955T912 1019T937 1082H1125Q1103 1035 1080 971T1038 838T1003 699T983 571Q986 468 997 381T1024
221T1058 94T1094 0H911Q900 28 890 61T871 126T857 188T847 237H843Z" />
<glyph unicode="&#x3b2;" glyph-name="beta" horiz-adv-x="1178" d="M322 205Q350 186 385 169T461 140T545 120T632 113Q704 113 759 133T850 192T906 283T925 402Q925 467 906 522T847 617T742 680T589 703V845Q716 872 772 941T829 1133Q829 1177 816 1215T774
1282T702 1327T598 1343Q528 1343 476 1326T390 1270T339 1170T322 1021V205ZM1097 405Q1097 316 1071 239T989 104T847 13T640 -20Q538 -20 458 7T322 74H316Q319 17 320 -29T322 -128V-425H142V1027Q142 1264 256 1374T596 1484Q695 1484 771 1461T898 1392T975
1282T1002 1135Q1002 1062 985 1007T937 910T866 841T779 795Q836 784 893 757T995 683T1069 568T1097 405Z" />
<glyph unicode="&#x3b3;" glyph-name="gamma" horiz-adv-x="1024" d="M7 1082H199L444 407L462 354Q472 322 482 289T500 224T513 170Q518 191 527 222L546 286Q557 320 568 352L587 405L826 1082H1017L627 53Q610 8 595 -47T566 -165T541 -293T522 -424H331Q348
-293 372 -187T420 11L7 1082Z" />
<glyph unicode="&#x3b4;" glyph-name="delta" horiz-adv-x="1140" d="M607 1352Q594 1352 573 1353T530 1355T487 1358T453 1360L769 1036Q826 977 874 923Q925 865 964 798T1028 652T1053 475Q1053 365 1021 274T928 118T776 16T571 -20Q457 -20 367 14T215 111T119
266T86 473Q86 585 122 673T222 828T370 944T551 1026L232 1365V1484H965V1352H607ZM864 471Q864 556 840 628T781 758T708 859T644 929Q571 903 504 863T386 765T305 635T275 471Q275 395 292 330T346 216T438 141T571 113Q652 113 708 140T798 214T848 327T864
471Z" />
<glyph unicode="&#x3b5;" glyph-name="epsilon" horiz-adv-x="913" d="M456 114Q510 114 558 129T645 169T716 221T769 275L874 175Q842 136 800 101T705 39T587 -4T444 -20Q348 -20 278 3T161 68T93 168T70 295Q70 353 91 400T148 482T232 538T334 564V566Q283
572 241 592T168 644T120 719T103 813Q103 875 128 928T200 1019T316 1080T471 1102Q589 1102 684 1059T847 917L719 829Q672 900 610 934T472 968Q381 968 333 926T285 809Q285 752 312 717T388 664T502 639T643 633V498Q571 498 502 493T378 467T290 407T257
298Q257 253 271 219T312 161T375 126T456 114Z" />
<glyph unicode="&#x3b6;" glyph-name="zeta" horiz-adv-x="903" d="M277 379Q277 315 298 276T357 212T444 172T551 141L660 109Q716 92 761 64T835 -9T864 -121Q864 -155 855 -189T833 -254T806 -310L781 -353L655 -297Q664 -285 673 -269T691 -233T704 -195T710
-156Q710 -122 692 -100T641 -61T561 -32Q535 -24 457 -6L370 16Q326 27 285 45T208 88T144 150T102 237T86 354Q86 437 110 525T177 701T276 876T396 1047T528 1208L659 1353V1357Q647 1356 630 1356L595 1354H560Q543 1353 532 1353H187V1484H829V1357L702 1208Q636
1130 575 1047T459 878T365 707T301 538T277 379Z" />
<glyph unicode="&#x3b7;" glyph-name="eta" horiz-adv-x="1139" d="M825 -424V686Q825 765 814 818T776 903T708 949T602 963Q538 963 487 941T399 876T342 771T322 627V0H142V851Q142 919 131 979T106 1082H276Q285 1061 292 1037T304 989T311 941T314 897H317Q343
944 374 982T446 1046T540 1087T663 1102Q753 1102 818 1080T925 1012T986 894T1006 721V-424H825Z" />
<glyph unicode="&#x3b8;" glyph-name="theta" horiz-adv-x="1139" d="M574 1354Q512 1354 463 1329T377 1240T320 1071T296 804H843Q840 965 820 1071T766 1240T683 1328T574 1354ZM563 113Q625 113 675 139T761 229T819 401T843 673H296Q299 509 321 402T378
230T461 139T563 113ZM1033 733Q1033 352 913 166T565 -20Q457 -20 372 26T227 165T137 399T106 733Q106 1106 222 1294T571 1483Q692 1483 779 1437T923 1296T1006 1062T1033 733Z" />
<glyph unicode="&#x3b9;" glyph-name="iota" horiz-adv-x="455" d="M199 0Q184 16 172 42T153 101T141 168T137 236V1082H317V227Q317 195 322 163T338 101T364 45T397 0H199Z" />
<glyph unicode="&#x3ba;" glyph-name="kappa" horiz-adv-x="1024" d="M816 0L450 494L318 385V0H138V1082H318V557L793 1082H1004L565 617L1027 0H816Z" />
<glyph unicode="&#x3bb;" glyph-name="lambda" horiz-adv-x="1024" d="M463 965L427 1064L379 1190Q358 1242 336 1275T285 1324T216 1340Q205 1340 189 1337T167 1330L132 1460Q157 1469 193 1476T261 1484Q316 1484 359 1466T439 1408T509 1302T579 1141L1006
0H816L609 577Q600 602 592 627L574 684L557 742Q549 770 544 791Q537 770 526 740T502 679L478 620L458 575L201 0H14L463 965Z" />
<glyph unicode="&#x3bc;" glyph-name="uni03BC" horiz-adv-x="1180" d="M862 0Q861 6 860 29T856 82L854 140Q852 170 852 190H848Q822 139 794 100T732 34T654 -6T554 -20Q472 -20 412 12T320 102H316Q319 70 319 39T320 -20V-393H138V1082H320V438Q320 369 332
311T374 211T453 145T576 121Q643 121 693 147T776 218T826 327T843 465V1082H1024V233Q1024 199 1024 161T1026 90T1028 32T1030 0H862Z" />
<glyph unicode="&#x3bd;" glyph-name="nu" horiz-adv-x="1024" d="M946 846Q946 747 915 638T830 419T707 201T560 0H390L0 1082H189L500 154Q642 339 704 510T766 837Q766 918 752 977T717 1082H894Q918 1037 932 981T946 846Z" />
<glyph unicode="&#x3be;" glyph-name="xi" horiz-adv-x="917" d="M86 354Q86 430 111 503T192 639T334 746T547 810V812Q479 817 420 836T318 890T249 972T223 1082Q223 1146 248 1192T312 1271T400 1323T496 1353V1361Q484 1360 450 1359T376 1357T298 1354T242
1353H168V1484H802V1359Q725 1350 653 1333T525 1287T435 1212T401 1100Q401 1037 431 997T510 932T625 895T759 877V746Q659 733 572 706T419 635T315 527T277 379Q277 315 298 276T357 212T444 172T551 141L662 109Q719 92 766 64T843 -9T874 -121Q874 -155 865
-189T843 -254T816 -310L791 -353L665 -297Q674 -285 683 -269T701 -233T714 -195T720 -156Q720 -122 701 -100T646 -61T562 -32Q543 -27 457 -6L370 16Q326 27 285 45T208 88T144 150T102 237T86 354Z" />
<glyph unicode="&#x3bf;" glyph-name="omicron" horiz-adv-x="1139" d="M864 416T864 542T845 750T788 881T696 949T574 969Q505 969 450 949T355 879T296 747T275 542Q275 416 297 334T357 202T448 133T563 113Q632 113 688 132T783 201T843 333ZM1053 542Q1053
258 928 119T565 -20Q452 -20 363 14T213 118T119 293T86 542Q86 1102 571 1102Q697 1102 788 1067T938 962T1025 787T1053 542Z" />
<glyph unicode="&#x3c0;" glyph-name="pi" horiz-adv-x="1413" d="M1126 -20Q1067 -20 1026 -6T959 37T921 114T909 227V951H507V879Q507 748 499 623T478 383T446 172T409 0H221Q240 76 259 174T295 386T321 622T331 871V951Q292 951 253 948T179 939T118 928T79
914V1053Q91 1059 112 1064T159 1074T212 1080T262 1082H1323V951H1089V266Q1089 222 1095 194T1114 150T1143 128T1183 121Q1190 121 1202 122L1226 124Q1238 125 1250 126L1269 129V0Q1238 -8 1204 -14T1126 -20Z" />
<glyph unicode="&#x3c1;" glyph-name="rho" horiz-adv-x="1165" d="M890 524Q890 628 868 711T805 851T705 939T575 970Q506 970 456 944T374 867T327 743T312 577V260Q340 225 376 198T452 152T535 123T623 113Q690 113 740 142T823 224T873 354T890 524ZM1083
516Q1083 398 1052 300T963 130T825 20T646 -20Q584 -20 535 -10T446 18T373 63T312 123H308Q310 93 311 63T312 0V-425H132V581Q132 700 162 796T250 961T392 1066T587 1103Q690 1103 780 1064T938 949T1044 765T1083 516Z" />
<glyph unicode="&#x3c2;" glyph-name="sigma1" horiz-adv-x="987" d="M582 961Q528 961 484 937T407 872T349 780T308 674T285 567T277 472Q277 404 293 356T347 272T447 208T601 149L711 114Q768 95 815 66T893 -8T924 -121Q924 -155 915 -189T893 -254T866 -310L841
-353L715 -297Q724 -285 733 -269T751 -233T764 -195T770 -156Q770 -126 753 -104T701 -64T618 -30Q574 -16 507 2Q441 20 385 40T281 85T198 145T137 225T99 333T86 475Q86 522 96 587T129 722T189 860T282 982T411 1069T582 1102Q650 1102 699 1092T785 1064T849
1025T898 980L782 861Q764 880 743 898T698 930T645 952T582 961Z" />
<glyph unicode="&#x3c3;" glyph-name="sigma" horiz-adv-x="1264" d="M883 488Q883 562 873 628T846 752T807 859T759 951H670Q587 951 516 926T391 849T307 716T276 526Q276 319 351 216T574 113Q652 113 710 139T807 213T864 331T883 488ZM1072 491Q1072 379
1042 285T950 124T797 18T582 -20T366 17T211 123T118 294T86 524Q86 668 129 773T248 947T431 1049T664 1082H1233V951H1068Q1059 951 1042 951T1002 953L959 955Q937 956 920 957V953Q948 911 975 862T1024 755T1059 632T1072 491Z" />
<glyph unicode="&#x3c4;" glyph-name="tau" horiz-adv-x="809" d="M281 951Q242 951 203 948T129 939T68 928T29 914V1053Q41 1059 62 1064T109 1074T162 1080T212 1082H792V951H488V266Q488 222 494 194T513 150T542 128T582 121Q589 121 600 122L624 124Q637
125 648 126L668 129V0Q637 -8 603 -14T525 -20Q466 -20 425 -6T358 37T320 114T308 227V951H281Z" />
<glyph unicode="&#x3c5;" glyph-name="upsilon" horiz-adv-x="1120" d="M1022 571Q1022 434 996 325T913 139T768 21T557 -20Q448 -20 368 5T236 83T159 220T133 419V1082H314V413Q314 267 372 193T565 119Q638 119 690 144T774 223T822 362T837 567Q837 635 827
708T801 851T764 981T723 1082H911Q929 1042 949 986T985 862T1011 721T1022 571Z" />
<glyph unicode="&#x3c6;" glyph-name="phi" horiz-adv-x="1328" d="M1053 567Q1053 760 1010 865T886 971Q818 971 780 907T742 702V119Q904 126 978 235T1053 567ZM1242 565Q1242 414 1205 307T1102 129T944 24T742 -18V-425H572V-18Q458 -13 368 23T215 128T119
300T85 545Q85 647 109 741T185 910T316 1036T505 1106L526 970Q457 955 409 917T331 821T288 693T274 541Q274 328 347 228T572 119V699Q572 892 649 998T884 1104Q968 1104 1034 1066T1147 958T1217 788T1242 565Z" />
<glyph unicode="&#x3c7;" glyph-name="chi" horiz-adv-x="1075" d="M542 239L209 -424H21L461 401L291 744L242 839Q220 880 200 907T159 949T113 963Q102 963 86 960T63 953L29 1084Q53 1093 84 1098T147 1104Q195 1104 230 1091T295 1046T354 964Q383 914 420
838L562 543L826 1082H1013L645 385L1051 -424H861L542 239Z" />
<glyph unicode="&#x3c8;" glyph-name="psi" horiz-adv-x="1460" d="M814 119Q901 120 963 135T1065 187T1123 284T1142 436V1082H1324V438Q1324 316 1295 230T1203 89T1045 8T814 -20V-425H644V-20Q510 -19 414 7T256 89T165 230T135 438V1082H316V436Q316 346
335 286T393 189T495 136T644 119V1340H814V119Z" />
<glyph unicode="&#x3c9;" glyph-name="omega" horiz-adv-x="1599" d="M883 449Q883 292 940 206T1099 119Q1164 119 1207 147T1277 226T1315 349T1326 512Q1326 594 1312 669T1267 804T1188 907T1072 964L1095 1103Q1204 1085 1283 1029T1414 893T1490 715T1515
517Q1515 389 1489 289T1412 121T1287 16T1118 -20Q1050 -20 998 -2T908 50T843 133T801 247H797Q781 183 755 134T691 50T600 -2T480 -20Q385 -20 311 16T187 120T110 289T83 517Q83 618 107 715T183 892T314 1029T503 1103L526 964Q458 949 410 907T331 805T286
669T272 512Q272 422 283 350T320 226T389 147T497 119Q548 119 589 141T658 206T702 309T717 449V701H883V449Z" />
<glyph unicode="&#x3ca;" glyph-name="iotadieresis" horiz-adv-x="455" d="M199 0Q184 16 172 42T153 101T141 168T137 236V1082H317V227Q317 195 322 163T338 101T364 45T397 0H199ZM205 1219V1403H370V1219H205ZM599 1219V1403H762V1219H599Z" />
<glyph unicode="&#x3cb;" glyph-name="upsilondieresis" horiz-adv-x="1120" d="M1022 571Q1022 434 996 325T913 139T768 21T557 -20Q448 -20 368 5T236 83T159 220T133 419V1082H314V413Q314 267 372 193T565 119Q638 119 690 144T774 223T822 362T837 567Q837
635 827 708T801 851T764 981T723 1082H911Q929 1042 949 986T985 862T1011 721T1022 571ZM287 1219V1403H452V1219H287ZM681 1219V1403H844V1219H681Z" />
<glyph unicode="&#x3cc;" glyph-name="omicrontonos" horiz-adv-x="1139" d="M864 416T864 542T845 750T788 881T696 949T574 969Q505 969 450 949T355 879T296 747T275 542Q275 416 297 334T357 202T448 133T563 113Q632 113 688 132T783 201T843 333ZM1053 542Q1053
258 928 119T565 -20Q452 -20 363 14T213 118T119 293T86 542Q86 1102 571 1102Q697 1102 788 1067T938 962T1025 787T1053 542ZM502 1218V1251L571 1543H778V1506L577 1218H502Z" />
<glyph unicode="&#x3cd;" glyph-name="upsilontonos" horiz-adv-x="1120" d="M1022 571Q1022 434 996 325T913 139T768 21T557 -20Q448 -20 368 5T236 83T159 220T133 419V1082H314V413Q314 267 372 193T565 119Q638 119 690 144T774 223T822 362T837 567Q837
635 827 708T801 851T764 981T723 1082H911Q929 1042 949 986T985 862T1011 721T1022 571ZM457 1218V1251L526 1543H733V1506L532 1218H457Z" />
<glyph unicode="&#x3ce;" glyph-name="omegatonos" horiz-adv-x="1599" d="M883 449Q883 292 940 206T1099 119Q1164 119 1207 147T1277 226T1315 349T1326 512Q1326 594 1312 669T1267 804T1188 907T1072 964L1095 1103Q1204 1085 1283 1029T1414 893T1490 715T1515
517Q1515 389 1489 289T1412 121T1287 16T1118 -20Q1050 -20 998 -2T908 50T843 133T801 247H797Q781 183 755 134T691 50T600 -2T480 -20Q385 -20 311 16T187 120T110 289T83 517Q83 618 107 715T183 892T314 1029T503 1103L526 964Q458 949 410 907T331 805T286
669T272 512Q272 422 283 350T320 226T389 147T497 119Q548 119 589 141T658 206T702 309T717 449V701H883V449ZM716 1218V1251L785 1543H992V1506L791 1218H716Z" />
<glyph unicode="&#x401;" glyph-name="afii10023" horiz-adv-x="1367" d="M168 0V1409H1237V1253H359V801H1177V647H359V156H1278V0H168ZM422 1530V1714H587V1530H422ZM816 1530V1714H979V1530H816Z" />
<glyph unicode="&#x402;" glyph-name="afii10051" horiz-adv-x="1771" d="M720 1253V901Q753 908 807 918T925 937T1054 953T1172 960Q1398 960 1506 867T1615 585V371Q1615 278 1595 206T1531 83T1422 7T1263 -20Q1210 -20 1166 -12T1085 13T1015 52T954 103L1065
226Q1083 210 1103 194T1148 164T1200 143T1261 134Q1345 134 1385 184T1425 346V565Q1425 684 1361 745T1152 806Q1101 806 1040 801T918 789T806 773T720 756V0H530V1253H46V1409H1204V1253H720Z" />
<glyph unicode="&#x403;" glyph-name="afii10052" horiz-adv-x="1109" d="M1071 1410V1254H359V1H168V1410H1071ZM441 1530V1550L658 1776H865V1747L555 1530H441Z" />
<glyph unicode="&#x404;" glyph-name="afii10053" horiz-adv-x="1472" d="M792 1274Q681 1274 595 1240T446 1143T348 991T301 792H955V638H301Q310 526 348 434T451 275T603 173T800 137Q890 137 960 162T1085 228T1178 321T1245 429L1401 352Q1361 273 1307
205T1179 87T1010 9T791 -20Q620 -20 492 34T277 186T147 418T104 711Q104 876 149 1009T282 1235T498 1379T790 1430Q1015 1430 1166 1342T1388 1081L1207 1021Q1187 1071 1153 1116T1068 1197T949 1253T792 1274Z" />
<glyph unicode="&#x405;" glyph-name="afii10054" horiz-adv-x="1366" d="M1272 389Q1272 300 1238 225T1131 96T950 11T690 -20Q427 -20 280 72T93 338L278 375Q292 320 321 275T399 198T522 147T697 129Q782 129 853 143T975 188T1054 265T1083 379Q1083 448
1052 491T963 562T827 609L652 650Q576 667 534 678Q474 694 420 715T317 766T234 835T179 929T159 1053Q159 1153 199 1224T312 1342T482 1409T694 1430Q825 1430 918 1410T1075 1348T1177 1247T1239 1106L1051 1073Q1037 1124 1011 1164T941 1231T837 1272T692
1286Q594 1286 528 1269T421 1221T363 1151T345 1063Q345 1000 376 960T462 892T587 847Q638 834 738 811L868 780Q932 765 991 744T1101 693T1191 622T1250 523T1272 389Z" />
<glyph unicode="&#x406;" glyph-name="afii10055" horiz-adv-x="569" d="M189 0V1409H380V0H189Z" />
<glyph unicode="&#x407;" glyph-name="afii10056" horiz-adv-x="569" d="M189 0V1409H380V0H189ZM263 1530V1714H428V1530H263ZM657 1530V1714H820V1530H657Z" />
<glyph unicode="&#x408;" glyph-name="afii10057" horiz-adv-x="1024" d="M457 -20Q286 -20 177 69T32 350L219 381Q229 316 252 270T307 193T378 149T458 135Q562 135 622 206T682 416V1253H411V1409H872V420Q872 319 844 238T763 100T632 11T457 -20Z" />
<glyph unicode="&#x409;" glyph-name="afii10058" horiz-adv-x="2165" d="M1867 411Q1867 532 1785 596T1539 661H1180V151H1547Q1711 151 1789 219T1867 411ZM2059 413Q2059 326 2029 251T1938 120T1786 32T1574 0H989V1249H573L524 881Q497 677 480 576Q459
442 435 343T380 175T311 64T221 3T104 -16Q79 -16 56 -14T18 -6V146Q29 142 46 141T74 139Q104 139 130 150T178 193T222 277T262 415T302 619Q321 734 343 899L410 1409H1180V813H1562Q1687 813 1780 784T1935 703T2028 577T2059 413Z" />
<glyph unicode="&#x40a;" glyph-name="afii10059" horiz-adv-x="2069" d="M1771 411Q1771 532 1689 596T1443 661H1124V151H1451Q1615 151 1693 219T1771 411ZM1963 413Q1963 326 1933 251T1842 120T1690 32T1478 0H933V653H359V0H168V1409H359V813H933V1409H1124V813H1466Q1591
813 1684 784T1839 703T1932 577T1963 413Z" />
<glyph unicode="&#x40b;" glyph-name="afii10060" horiz-adv-x="1749" d="M1393 0V575Q1393 697 1329 751T1132 806Q1079 806 1021 801T908 789T804 772T720 756V0H530V1253H46V1409H1249V1253H720V901L805 919Q854 929 910 938T1025 953T1140 960Q1369 960 1476
867T1583 595V0H1393Z" />
<glyph unicode="&#x40c;" glyph-name="afii10061" horiz-adv-x="1193" d="M168 1409H359V790Q416 790 456 802T535 848T618 944Q656 996 729 1104L934 1409H1134L851 999Q720 810 672 775L1181 0H959L532 683Q515 675 492 669T445 657T399 648T359 645V0H168V1409ZM500
1530V1550L717 1776H924V1747L614 1530H500Z" />
<glyph unicode="&#x40e;" glyph-name="afii10062" horiz-adv-x="1301" d="M734 318Q687 230 647 166T561 61T462 0T332 -20Q300 -20 267 -15T202 -1T141 21T89 50L170 194Q205 172 246 154T336 135Q373 135 402 145T457 182T512 253T579 366L628 455L55 1409H273L722
625L1106 1409H1311L734 318ZM801 1530T690 1530T509 1558T398 1632T341 1735T323 1850H487Q493 1747 545 1699T690 1651T835 1699T893 1850H1057Q1055 1793 1039 1736T983 1633T872 1559Z" />
<glyph unicode="&#x40f;" glyph-name="afii10145" horiz-adv-x="1472" d="M646 -408V0H168V1409H359V160H1118V1409H1304V0H826V-408H646Z" />
<glyph unicode="&#x410;" glyph-name="afii10017" horiz-adv-x="1366" d="M768 1026Q748 1078 738 1107L712 1182L694 1238Q686 1260 685 1265Q683 1260 676 1237T658 1180L632 1105L602 1024L422 561H949L768 1026ZM1167 0L1006 412H364L202 0H4L579 1409H796L1362
0H1167Z" />
<glyph unicode="&#x411;" glyph-name="afii10018" horiz-adv-x="1344" d="M1046 411Q1046 532 964 596T718 661H359V151H726Q890 151 968 219T1046 411ZM1238 413Q1238 326 1208 251T1117 120T965 32T753 0H168V1409H1094V1253H359V813H741Q866 813 959 784T1114
703T1207 577T1238 413Z" />
<glyph unicode="&#x412;" glyph-name="afii10019" horiz-adv-x="1366" d="M1065 412Q1065 479 1041 526T970 603T860 647T715 661H359V153H730Q803 153 864 165T970 207T1040 287T1065 412ZM984 1044Q984 1158 906 1207T680 1256H359V810H680Q764 810 822 826T916
873T968 947T984 1044ZM1258 397Q1258 290 1216 215T1103 92T938 22T740 0H168V1409H680Q797 1409 889 1390T1045 1328T1142 1222T1176 1067Q1176 1008 1160 956T1110 862T1026 789T908 743Q993 733 1058 704T1168 630T1235 526T1258 397Z" />
<glyph unicode="&#x413;" glyph-name="afii10020" horiz-adv-x="1109" d="M1071 1410V1254H359V1H168V1410H1071Z" />
<glyph unicode="&#x414;" glyph-name="afii10021" horiz-adv-x="1387" d="M988 160V1249H613L564 881Q546 747 526 637T483 437T433 280T374 160H988ZM1174 160H1349V-408H1169V0H195V-408H15V160H159Q200 211 233 280T293 439T343 644Q363 750 383 899L450 1409H1174V160Z"
/>
<glyph unicode="&#x415;" glyph-name="afii10022" horiz-adv-x="1366" d="M168 0V1409H1237V1253H359V801H1177V647H359V156H1278V0H168Z" />
<glyph unicode="&#x416;" glyph-name="afii10024" horiz-adv-x="1891" d="M850 645Q833 645 811 648T764 656T717 668T677 683L250 0H28L537 775Q489 810 358 999L75 1409H275L480 1104Q553 996 591 944Q636 882 674 848T752 802T850 790V1409H1041V790Q1098 790
1138 802T1217 848T1300 944Q1338 996 1411 1104L1616 1409H1816L1533 999Q1402 810 1354 775L1863 0H1641L1214 683Q1197 675 1174 669T1127 657T1081 648T1041 645V0H850V645Z" />
<glyph unicode="&#x417;" glyph-name="afii10025" horiz-adv-x="1237" d="M621 -20Q503 -20 415 5T262 75T150 185T67 328L232 405Q256 350 289 301T367 215T473 155T614 133Q691 133 752 151T855 204T920 289T943 403Q943 536 847 595T549 654H478V802H549Q730
802 816 861T903 1044Q903 1099 884 1142T828 1214T740 1259T623 1274Q546 1274 489 1254T391 1200T321 1121T274 1027L96 1088Q129 1170 177 1233T291 1340T441 1406T630 1429Q738 1429 824 1403T970 1328T1062 1212T1094 1061Q1094 993 1074 940T1018 846T929
779T814 736Q881 726 939 701T1041 635T1110 537T1136 406Q1136 311 1102 233T1001 99T839 11T621 -20Z" />
<glyph unicode="&#x418;" glyph-name="afii10026" horiz-adv-x="1472" d="M168 0V1409H340V485Q340 434 339 385Q338 349 336 297Q334 251 332 211L1082 1409H1304V0H1134V936Q1134 975 1134 1019T1137 1102Q1138 1146 1140 1190L398 0H168Z" />
<glyph unicode="&#x419;" glyph-name="afii10027" horiz-adv-x="1472" d="M168 0V1409H340V485Q340 434 339 385Q338 349 336 297Q334 251 332 211L1082 1409H1304V0H1134V936Q1134 975 1134 1019T1137 1102Q1138 1146 1140 1190L398 0H168ZM853 1530T742 1530T561
1558T450 1632T393 1735T375 1850H539Q545 1747 597 1699T742 1651T887 1699T945 1850H1109Q1107 1793 1091 1736T1035 1633T924 1559Z" />
<glyph unicode="&#x41a;" glyph-name="afii10028" horiz-adv-x="1193" d="M168 1409H359V790Q416 790 456 802T535 848T618 944Q656 996 729 1104L934 1409H1134L851 999Q720 810 672 775L1181 0H959L532 683Q515 675 492 669T445 657T399 648T359 645V0H168V1409Z" />
<glyph unicode="&#x41b;" glyph-name="afii10029" horiz-adv-x="1344" d="M991 1249H573L524 881Q497 677 480 576Q459 442 435 343T380 175T311 64T221 3T104 -16Q79 -16 56 -14T18 -6V146Q29 142 46 141T74 139Q104 139 130 150T178 193T222 277T262 415T302
619Q321 734 343 899L410 1409H1177V0H991V1249Z" />
<glyph unicode="&#x41c;" glyph-name="afii10030" horiz-adv-x="1706" d="M1366 0V940Q1366 991 1367 1044Q1368 1091 1370 1141Q1372 1200 1375 1240L1346 1139L1318 1048Q1303 1003 1287 960L923 0H789L420 960Q414 975 408 995L394 1038L378 1084L364 1130Q347
1183 331 1240Q332 1184 334 1129Q336 1065 337 1030Q338 979 338 940V0H168V1409H419L794 432Q801 412 811 381T830 316L846 254Q854 224 857 208Q860 224 868 254T886 317L907 381Q917 412 925 432L1293 1409H1538V0H1366Z" />
<glyph unicode="&#x41d;" glyph-name="afii10031" horiz-adv-x="1479" d="M1121 0V653H359V0H168V1409H359V813H1121V1409H1312V0H1121Z" />
<glyph unicode="&#x41e;" glyph-name="afii10032" horiz-adv-x="1593" d="M1300 711Q1300 838 1268 942T1172 1120T1014 1234T797 1274Q671 1274 576 1234T418 1120T323 942T291 711T323 479T419 297T577 178T795 135Q927 135 1022 178T1179 297T1270 480T1300
711ZM1495 711Q1495 546 1448 411T1310 180T1090 32T795 -20Q621 -20 490 34T272 186T141 418T97 711Q97 876 143 1009T278 1235T497 1379T797 1430Q965 1430 1095 1379T1314 1234T1449 1007T1495 711Z" />
<glyph unicode="&#x41f;" glyph-name="afii10033" horiz-adv-x="1472" d="M1375 0V1248H613V0H422V1409H1566V0H1375Z" />
<glyph unicode="&#x420;" glyph-name="afii10034" horiz-adv-x="1366" d="M1066 983Q1066 1117 984 1186T738 1256H359V700H746Q911 700 988 773T1066 983ZM1258 985Q1258 893 1228 814T1137 676T985 583T773 549H359V0H168V1409H761Q886 1409 979 1379T1134 1293T1227
1159T1258 985Z" />
<glyph unicode="&#x421;" glyph-name="afii10035" horiz-adv-x="1479" d="M792 1274Q672 1274 580 1234T425 1120T330 942T298 711T332 479T431 297T589 179T800 137Q882 137 949 158T1071 219T1169 311T1245 430L1401 352Q1363 273 1307 205T1176 87T1005 9T791
-20Q620 -20 492 34T277 186T147 418T104 711Q104 876 149 1009T282 1235T498 1379T790 1430Q1015 1430 1166 1342T1388 1081L1207 1021Q1187 1071 1153 1116T1068 1197T949 1253T792 1274Z" />
<glyph unicode="&#x422;" glyph-name="afii10036" horiz-adv-x="1251" d="M720 1253V0H530V1253H46V1409H1204V1253H720Z" />
<glyph unicode="&#x423;" glyph-name="afii10037" horiz-adv-x="1301" d="M734 318Q687 230 647 166T561 61T462 0T332 -20Q300 -20 267 -15T202 -1T141 21T89 50L170 194Q205 172 246 154T336 135Q373 135 402 145T457 182T512 253T579 366L628 455L55 1409H273L722
625L1106 1409H1311L734 318Z" />
<glyph unicode="&#x424;" glyph-name="afii10038" horiz-adv-x="1557" d="M310 732Q310 644 331 574T397 455T510 380T670 353H683V1099H674Q492 1099 401 1009T310 732ZM1247 732Q1247 919 1155 1009T879 1099H874V353H887Q979 353 1047 379T1159 455T1225 574T1247
732ZM1439 736Q1439 631 1407 537T1310 372T1146 258T914 216H874V-11H683V216H643Q510 216 412 258T248 371T150 537T118 736Q118 849 151 941T251 1099T418 1201T654 1237H683V1419H874V1237H902Q1037 1237 1138 1201T1305 1100T1405 942T1439 736Z" />
<glyph unicode="&#x425;" glyph-name="afii10039" horiz-adv-x="1366" d="M1112 0L689 616L257 0H46L582 732L87 1409H298L690 856L1071 1409H1282L800 739L1323 0H1112Z" />
<glyph unicode="&#x426;" glyph-name="afii10040" horiz-adv-x="1515" d="M1477 160V-408H1297V0H168V1409H359V160H1116V1409H1302V160H1477Z" />
<glyph unicode="&#x427;" glyph-name="afii10041" horiz-adv-x="1365" d="M1008 508L925 490Q878 480 825 471T714 456T600 450Q486 450 403 473T266 543T186 657T160 815V1409H350V835Q350 712 415 658T614 604Q667 604 722 609T829 621T927 638L1008 653V1409H1198V0H1008V508Z"
/>
<glyph unicode="&#x428;" glyph-name="afii10042" horiz-adv-x="1877" d="M168 0V1409H359V160H848V1409H1034V160H1523V1409H1709V0H168Z" />
<glyph unicode="&#x429;" glyph-name="afii10043" horiz-adv-x="1920" d="M1839 160V-408H1659V0H168V1409H359V160H826V1409H1012V160H1478V1409H1664V160H1839Z" />
<glyph unicode="&#x42a;" glyph-name="afii10044" horiz-adv-x="1621" d="M1323 411Q1323 532 1241 596T995 661H696V151H1003Q1167 151 1245 219T1323 411ZM696 813H1018Q1143 813 1236 784T1391 703T1484 577T1515 413Q1515 326 1485 251T1394 120T1242 32T1030
0H505V1253H46V1409H696V813Z" />
<glyph unicode="&#x42b;" glyph-name="afii10045" horiz-adv-x="1813" d="M1454 0V1409H1645V0H1454ZM1046 411Q1046 532 964 596T718 661H359V151H726Q890 151 968 219T1046 411ZM1238 413Q1238 326 1208 251T1117 120T965 32T753 0H168V1409H359V813H741Q866
813 959 784T1114 703T1207 577T1238 413Z" />
<glyph unicode="&#x42c;" glyph-name="afii10046" horiz-adv-x="1344" d="M1046 407Q1046 528 964 593T718 659H359V151H726Q891 151 968 216T1046 407ZM1238 413Q1238 326 1208 251T1117 120T965 32T753 0H168V1409H359V813H741Q866 813 959 784T1114 703T1207
577T1238 413Z" />
<glyph unicode="&#x42d;" glyph-name="afii10047" horiz-adv-x="1472" d="M713 1274Q625 1274 557 1253T437 1197T352 1117T298 1021L117 1081Q188 1254 339 1342T715 1430Q879 1430 1007 1380T1222 1236T1355 1009T1401 711Q1401 552 1358 418T1229 187T1015
35T715 -20Q597 -20 503 7T334 83T203 201T105 352L261 430Q288 375 328 323T423 229T548 162T705 137Q814 137 902 173T1054 275T1156 433T1204 638H550V792H1204Q1194 902 1158 991T1059 1143T911 1240T713 1274Z" />
<glyph unicode="&#x42e;" glyph-name="afii10048" horiz-adv-x="2069" d="M1776 711Q1776 838 1746 942T1658 1120T1513 1234T1313 1274Q1197 1274 1110 1234T964 1120T876 942T847 711T877 479T965 297T1110 178T1311 135Q1432 135 1520 178T1665 297T1749 480T1776
711ZM1971 711Q1971 546 1926 411T1796 180T1589 32T1311 -20Q1155 -20 1036 29T834 168T706 381T654 653H359V0H168V1409H359V813H657Q670 955 719 1069T852 1264T1051 1387T1313 1430Q1472 1430 1594 1379T1800 1234T1927 1007T1971 711Z" />
<glyph unicode="&#x42f;" glyph-name="afii10049" horiz-adv-x="1479" d="M344 1004Q344 947 362 898T419 813T517 757T660 736H1121V1256H668Q592 1256 532 1241T430 1194T366 1115T344 1004ZM96 0L496 607Q405 623 340 662T233 755T172 874T152 1006Q152 1100
185 1175T281 1302T436 1381T649 1409H1312V0H1121V585H682L316 0H96Z" />
<glyph unicode="&#x430;" glyph-name="afii10065" horiz-adv-x="1139" d="M455 115Q541 115 605 146T712 227T776 334T797 445V534L600 530Q531 529 474 520Q415 512 370 487T299 417T272 299Q272 211 319 163T455 115ZM414 -20Q251 -20 169 66T87 302Q87 409
127 477T233 585T383 639T554 656L797 660V719Q797 786 783 833T740 909T668 951T565 965Q513 965 471 958T398 931T348 878T323 793L135 810Q145 874 173 927T252 1020T381 1080T569 1102Q773 1102 876 1009T979 738V272Q979 192 1000 152T1080 111Q1095 111 1110
113T1139 118V6Q1105 -2 1072 -6T1000 -10Q949 -10 913 3T853 44T818 112T803 207H797Q768 155 734 113T653 42T549 -4T414 -20Z" />
<glyph unicode="&#x431;" glyph-name="afii10066" horiz-adv-x="1173" d="M655 1027Q877 1027 982 897T1087 504Q1087 239 962 110T599 -20Q486 -20 397 15T247 128T153 331T120 636Q120 828 149 967T242 1202T409 1356Q511 1414 659 1442Q719 1454 766 1462Q816
1470 861 1477T950 1490L1036 1502V1341Q950 1330 870 1318Q797 1308 698 1290Q617 1275 558 1260Q496 1243 449 1218T369 1157T313 1066T280 938T266 762Q285 817 318 865T400 950T512 1006T655 1027ZM898 388T898 502T879 691T823 812T734 876T617 895Q548 895
491 876T394 810T331 689T309 502Q309 388 331 313T391 194T482 131T597 113Q666 113 722 131T817 193T877 312Z" />
<glyph unicode="&#x432;" glyph-name="afii10067" horiz-adv-x="1088" d="M322 945V625H538Q606 625 651 634T724 663T763 713T775 787Q775 869 724 907T552 945H322ZM322 133H558Q627 133 674 143T751 175T794 230T808 311Q808 361 794 396T749 453T667 485T546
495H322V133ZM564 1082Q640 1082 712 1070T840 1027T930 944T964 811Q964 758 947 718T899 648T828 601T741 573V566Q795 559 842 542T924 494T979 418T999 312Q999 234 969 176T884 78T754 20T587 0H142V1082H564Z" />
<glyph unicode="&#x433;" glyph-name="afii10068" horiz-adv-x="747" d="M687 1082V951H322V0H142V1082H687Z" />
<glyph unicode="&#x434;" glyph-name="afii10069" horiz-adv-x="1195" d="M1160 -408H997V0H183V-408H20V131H139Q169 181 198 252T256 434T313 701T370 1082H1014V131H1160V-408ZM834 951H528Q504 774 480 643T431 414T383 249T337 131H834V951Z" />
<glyph unicode="&#x435;" glyph-name="afii10070" horiz-adv-x="1139" d="M862 641Q847 812 775 890T568 969Q523 969 474 955T382 903T311 803T278 641H862ZM276 503Q276 418 293 347T347 224T441 144T578 115Q695 115 765 162T861 281L1019 236Q1002 191 972
146T890 64T763 4T578 -20Q338 -20 213 123T87 548Q87 700 125 805T229 977T383 1072T571 1102Q707 1102 798 1058T945 937T1024 754T1048 527V503H276Z" />
<glyph unicode="&#x436;" glyph-name="afii10072" horiz-adv-x="1370" d="M595 477Q569 477 537 483T485 497L207 0H7L360 592Q343 606 310 648T232 757L16 1082H204L352 843Q400 766 432 720T491 649T541 616T595 608V1082H775V608Q805 608 829 616T879 649T937
720T1018 843L1166 1082H1354L1138 757Q1093 691 1060 649T1010 592L1363 0H1163L885 497Q866 489 834 483T775 477V0H595V477Z" />
<glyph unicode="&#x437;" glyph-name="afii10073" horiz-adv-x="939" d="M458 -20Q291 -20 193 42T49 234L208 278Q233 200 296 157T462 114Q558 114 614 161T671 299Q671 358 644 397T570 458T464 490T340 499V636Q404 636 461 643T561 670T628 722T653 808Q653
882 604 925T461 968Q426 968 391 961T326 938T275 894T247 824L85 844Q97 912 128 961T207 1041T320 1087T462 1102Q547 1102 616 1081T734 1022T809 932T836 817Q836 760 814 716T757 642T677 593T588 571V569Q644 563 694 543T781 489T840 409T862 304Q862 235
838 176T763 73T636 5T458 -20Z" />
<glyph unicode="&#x438;" glyph-name="afii10074" horiz-adv-x="1144" d="M316 1082V490Q316 467 314 428L312 349Q310 308 309 271T306 213L805 1082H1002V0H830V660Q830 679 831 707T834 766L836 824Q838 853 840 873L334 0H142V1082H316Z" />
<glyph unicode="&#x439;" glyph-name="afii10075" horiz-adv-x="1144" d="M316 1082V490Q316 467 314 428L312 349Q310 308 309 271T306 213L805 1082H1002V0H830V660Q830 679 831 707T834 766L836 824Q838 853 840 873L334 0H142V1082H316ZM685 1200T574 1200T393
1228T282 1302T225 1405T207 1520H371Q377 1417 429 1369T574 1321T719 1369T777 1520H941Q939 1463 923 1406T867 1303T756 1229Z" />
<glyph unicode="&#x43a;" glyph-name="afii10076" horiz-adv-x="896" d="M138 1082H318V608Q348 608 372 616T422 649T480 720T561 843L709 1082H897L681 757Q636 691 603 649T553 592L906 0H706L428 497Q409 489 377 483T318 477V0H138V1082Z" />
<glyph unicode="&#x43b;" glyph-name="afii10077" horiz-adv-x="1195" d="M872 0V951H497L451 624Q430 480 408 372T361 190T300 69T217 1T105 -20Q76 -20 52 -16T11 -7V122Q22 118 41 116T79 113Q114 113 139 134T185 202T221 323T255 506T291 756L335 1082H1053V0H872Z" />
<glyph unicode="&#x43c;" glyph-name="afii10078" horiz-adv-x="1408" d="M787 0H634L310 951Q311 925 312 895T314 834L316 776Q316 747 316 724V0H142V1082H422L642 421Q665 358 683 283T710 135Q720 207 737 282T778 421L998 1082H1267V0H1094V724Q1094 746
1094 776T1096 838T1099 900T1102 953L787 0Z" />
<glyph unicode="&#x43d;" glyph-name="afii10079" horiz-adv-x="1131" d="M322 1082V624H809V1082H989V0H809V493H322V0H142V1082H322Z" />
<glyph unicode="&#x43e;" glyph-name="afii10080" horiz-adv-x="1139" d="M864 416T864 542T845 750T788 881T696 949T574 969Q505 969 450 949T355 879T296 747T275 542Q275 416 297 334T357 202T448 133T563 113Q632 113 688 132T783 201T843 333ZM1053 542Q1053
258 928 119T565 -20Q452 -20 363 14T213 118T119 293T86 542Q86 1102 571 1102Q697 1102 788 1067T938 962T1025 787T1053 542Z" />
<glyph unicode="&#x43f;" glyph-name="afii10081" horiz-adv-x="1109" d="M967 1082V0H787V951H322V0H142V1082H967Z" />
<glyph unicode="&#x440;" glyph-name="afii10082" horiz-adv-x="1139" d="M864 542Q864 642 852 720T811 852T732 934T609 962Q549 962 496 945T404 880T341 748T318 528Q318 413 337 334T392 205T483 135T607 113Q682 113 731 142T810 226T852 360T864 542ZM1053
546Q1053 423 1033 319T967 140T844 23T655 -20Q539 -20 452 24T319 168H314Q315 166 315 150T316 110T317 57T318 -2V-425H138V861Q138 900 138 936T136 1001T134 1052T132 1082H306Q307 1079 308 1061T311 1018T314 963T316 908H320Q345 960 377 996T450 1056T541
1090T655 1101Q767 1101 843 1061T966 949T1033 774T1053 546Z" />
<glyph unicode="&#x441;" glyph-name="afii10083" horiz-adv-x="1024" d="M275 546Q275 453 288 375T334 241T418 153T548 122Q644 122 708 174T788 334L970 322Q961 255 931 193T850 84T724 9T553 -20Q426 -20 337 23T193 141T112 319T87 542Q87 651 105 734T155
880T232 985T327 1053T436 1090T551 1102Q642 1102 713 1077T835 1009T919 906T964 779L779 765Q765 855 708 908T546 961Q469 961 418 936T334 859T289 729T275 546Z" />
<glyph unicode="&#x442;" glyph-name="afii10084" horiz-adv-x="938" d="M35 1082H903V951H559V0H379V951H35V1082Z" />
<glyph unicode="&#x443;" glyph-name="afii10085" horiz-adv-x="1024" d="M604 0Q566 -98 527 -176T438 -310T329 -395T191 -425Q157 -425 128 -423T67 -414V-279Q86 -282 110 -283T151 -285Q230 -285 298 -226T417 -38L434 5L5 1082H197L425 484L450 412L482
322L509 241Q521 205 523 196Q526 207 538 240L564 312L593 393L618 464L830 1082H1020L604 0Z" />
<glyph unicode="&#x444;" glyph-name="afii10086" horiz-adv-x="1685" d="M1409 542Q1409 642 1398 720T1360 852T1290 934T1182 962Q1129 962 1083 945T1002 880T947 748T927 528V505Q928 397 945 322T995 201T1074 134T1180 113Q1245 113 1289 142T1359 226T1397
360T1409 542ZM275 542Q275 430 288 350T329 219T399 143T502 119T609 140T688 211T738 338T757 530V554Q757 669 740 748T691 877T612 947T504 969Q447 969 404 946T333 872T290 740T275 542ZM1598 546Q1598 423 1579 319T1517 140T1404 23T1233 -20Q1128 -20
1049 24T928 168H922Q924 133 925 95T927 -2V-425H757V-2Q757 52 758 93T762 174H757Q711 70 637 25T451 -20Q265 -20 176 117T86 536Q86 820 178 961T451 1102Q563 1102 637 1057T757 914H762Q762 924 761 944T759 988T758 1032T757 1065V1484H927V1064Q927 1053
926 1032V986L924 942Q924 920 924 908H929Q975 1012 1047 1056T1233 1101Q1334 1101 1404 1061T1517 949T1579 774T1598 546Z" />
<glyph unicode="&#x445;" glyph-name="afii10087" horiz-adv-x="1024" d="M801 0L510 444L217 0H23L408 556L41 1082H240L510 661L778 1082H979L612 558L1002 0H801Z" />
<glyph unicode="&#x446;" glyph-name="afii10088" horiz-adv-x="1173" d="M322 1082V131H799V1082H979V131H1126V-408H963V0H142V1082H322Z" />
<glyph unicode="&#x447;" glyph-name="afii10089" horiz-adv-x="1067" d="M302 1082V680Q302 646 310 617T337 565T389 531T468 518Q538 518 604 531T744 565V1082H924V0H744V461L666 430Q625 415 582 403T492 383T394 375Q328 375 278 395T193 454T140 547T122
671V1082H302Z" />
<glyph unicode="&#x448;" glyph-name="afii10090" horiz-adv-x="1643" d="M142 0V1082H322V131H732V1082H912V131H1321V1082H1501V0H142Z" />
<glyph unicode="&#x449;" glyph-name="afii10091" horiz-adv-x="1685" d="M142 0V1082H322V131H727V1082H907V131H1311V1082H1491V131H1638V-408H1475V0H142Z" />
<glyph unicode="&#x44a;" glyph-name="afii10092" horiz-adv-x="1280" d="M553 127H755Q824 127 872 139T949 176T992 236T1005 318Q1005 412 947 455T756 499H553V127ZM781 624Q986 624 1091 551T1196 318Q1196 244 1170 185T1092 85T963 22T782 0H373V951H45V1082H553V624H781Z"
/>
<glyph unicode="&#x44b;" glyph-name="afii10093" horiz-adv-x="1472" d="M1150 0V1082H1330V0H1150ZM322 127H524Q593 127 641 139T718 176T761 236T774 318Q774 412 716 455T525 499H322V127ZM550 624Q755 624 860 551T965 318Q965 244 939 185T861 85T732 22T551
0H142V1082H322V624H550Z" />
<glyph unicode="&#x44c;" glyph-name="afii10094" horiz-adv-x="1067" d="M322 127H542Q611 127 659 139T736 176T779 236T792 318Q792 412 734 455T543 499H322V127ZM568 624Q773 624 878 551T983 318Q983 244 957 185T879 85T750 22T569 0H142V1082H322V624H568Z" />
<glyph unicode="&#x44d;" glyph-name="afii10095" horiz-adv-x="1045" d="M55 315L237 327Q253 219 319 167T486 115Q559 115 610 141T696 216T747 332T769 482H356V613H769Q765 703 748 769T698 880T613 946T488 968Q379 968 320 916T246 772L61 786Q74 854 107
912T192 1012T317 1078T483 1102Q573 1102 658 1076T810 985T917 813T958 542Q958 422 933 320T850 142T702 23T481 -20Q382 -20 307 7T178 80T95 187T55 315Z" />
<glyph unicode="&#x44e;" glyph-name="afii10096" horiz-adv-x="1536" d="M1261 416T1261 542T1244 750T1193 881T1111 949T1001 969Q938 969 889 949T804 879T751 747T732 542Q732 416 751 334T806 202T888 133T991 113Q1053 113 1103 132T1188 201T1242 333ZM1450
542Q1450 258 1333 119T992 -20Q890 -20 810 11T672 106T582 266T544 493H322V0H142V1082H322V624H545Q578 1102 998 1102Q1235 1102 1342 962T1450 542Z" />
<glyph unicode="&#x44f;" glyph-name="afii10097" horiz-adv-x="1109" d="M787 955H553Q423 955 363 909T303 770Q303 676 356 630T534 583H787V955ZM535 458L220 0H17L361 471Q230 498 171 579T112 783Q112 932 220 1007T535 1082H967V0H787V458H535Z" />
<glyph unicode="&#x451;" glyph-name="afii10071" horiz-adv-x="1139" d="M862 641Q847 812 775 890T568 969Q523 969 474 955T382 903T311 803T278 641H862ZM276 503Q276 418 293 347T347 224T441 144T578 115Q695 115 765 162T861 281L1019 236Q1002 191 972
146T890 64T763 4T578 -20Q338 -20 213 123T87 548Q87 700 125 805T229 977T383 1072T571 1102Q707 1102 798 1058T945 937T1024 754T1048 527V503H276ZM293 1219V1403H458V1219H293ZM687 1219V1403H850V1219H687Z" />
<glyph unicode="&#x452;" glyph-name="afii10099" horiz-adv-x="1139" d="M142 0V1206H10V1337H142V1484H322V1337H622V1206H322V1058Q322 1025 321 992T318 931L316 884Q315 864 314 857H317Q347 912 382 950T459 1014T551 1050T663 1062Q767 1062 833 1034T938
956T991 835T1006 681V-134Q1006 -196 996 -249T958 -341T885 -402T766 -425Q732 -425 700 -423T639 -416V-277Q652 -279 670 -281T701 -283Q739 -283 763 -273T801 -242T820 -187T825 -107V646Q825 715 817 767T784 853T716 905T602 923Q538 923 487 900T399 835T342
733T322 598V0H142Z" />
<glyph unicode="&#x453;" glyph-name="afii10100" horiz-adv-x="747" d="M687 1082V951H322V0H142V1082H687ZM288 1201V1221L505 1508H712V1479L382 1201H288Z" />
<glyph unicode="&#x454;" glyph-name="afii10101" horiz-adv-x="1045" d="M564 -20Q434 -20 343 23T195 141T113 319T87 542Q87 705 127 813T235 985T387 1075T562 1102Q655 1102 727 1078T852 1012T938 912T984 786L799 772Q784 863 725 915T557 968Q484 968
433 946T348 880T297 770T276 613H688V482H275Q279 400 296 333T348 217T433 142T559 115Q659 115 725 166T808 327L990 315Q981 248 951 187T867 80T739 7T564 -20Z" />
<glyph unicode="&#x455;" glyph-name="afii10102" horiz-adv-x="1024" d="M950 299Q950 223 921 164T835 64T698 2T511 -20Q417 -20 342 -6T209 41T114 125T57 254L216 285Q239 198 311 158T511 117Q569 117 617 125T701 152T755 204T775 285Q775 334 752 365T688
418T588 454L460 489Q384 510 331 527Q267 548 216 582T132 668T100 796Q100 944 205 1021T513 1099Q692 1099 797 1036T931 834L769 814Q760 856 736 884T678 930T602 955T513 963Q391 963 333 926T275 814Q275 770 296 742T356 694T449 660L568 629L656 606Q701
593 743 576T823 535T889 478T933 401T950 299Z" />
<glyph unicode="&#x456;" glyph-name="afii10103" horiz-adv-x="455" d="M393 0V1082H573V0H393ZM393 1312V1484H573V1312H393Z" />
<glyph unicode="&#x457;" glyph-name="afii10104" horiz-adv-x="569" d="M194 0V1082H374V0H194ZM248 1219V1403H413V1219H248ZM642 1219V1403H805V1219H642Z" />
<glyph unicode="&#x458;" glyph-name="afii10105" horiz-adv-x="455" d="M317 -134Q317 -196 307 -249T269 -341T196 -402T77 -425Q43 -425 11 -423T-50 -416V-277Q-37 -279 -19 -281T12 -283Q50 -283 74 -273T113 -242T132 -187T137 -107V1082H317V-134ZM137
1312V1484H317V1312H137Z" />
<glyph unicode="&#x459;" glyph-name="afii10106" horiz-adv-x="1856" d="M1089 127H1331Q1400 127 1448 139T1525 176T1568 236T1581 318Q1581 412 1523 455T1332 499H1089V127ZM1357 624Q1562 624 1667 551T1772 318Q1772 244 1746 185T1668 85T1539 22T1358
0H908V951H497L451 624Q430 480 408 372T361 190T300 69T217 1T105 -20Q76 -20 52 -16T11 -7V122Q22 118 41 116T79 113Q114 113 139 134T185 202T221 323T255 506T291 756L335 1082H1089V624H1357Z" />
<glyph unicode="&#x45a;" glyph-name="afii10107" horiz-adv-x="1664" d="M937 127H1139Q1208 127 1256 139T1333 176T1376 236T1389 318Q1389 412 1331 455T1140 499H937V127ZM937 1082V624H1165Q1370 624 1475 551T1580 318Q1580 244 1554 185T1476 85T1347
22T1166 0H756V493H322V0H142V1082H322V624H756V1082H937Z" />
<glyph unicode="&#x45b;" glyph-name="afii10108" horiz-adv-x="1139" d="M317 857Q347 912 382 950T459 1014T551 1050T663 1062Q767 1062 833 1034T938 956T991 835T1006 681V0H825V646Q825 715 817 767T784 853T716 905T602 923Q538 923 487 900T399 835T342
733T322 598V0H142V1206H10V1337H142V1484H322V1337H622V1206H322V1058Q322 1025 321 992T318 931L316 884Q315 864 314 857H317Z" />
<glyph unicode="&#x45c;" glyph-name="afii10109" horiz-adv-x="896" d="M138 1082H318V608Q348 608 372 616T422 649T480 720T561 843L709 1082H897L681 757Q636 691 603 649T553 592L906 0H706L428 497Q409 489 377 483T318 477V0H138V1082ZM391 1201V1221L608
1508H815V1479L485 1201H391Z" />
<glyph unicode="&#x45e;" glyph-name="afii10110" horiz-adv-x="1024" d="M604 0Q566 -98 527 -176T438 -310T329 -395T191 -425Q157 -425 128 -423T67 -414V-279Q86 -282 110 -283T151 -285Q230 -285 298 -226T417 -38L434 5L5 1082H197L425 484L450 412L482
322L509 241Q521 205 523 196Q526 207 538 240L564 312L593 393L618 464L830 1082H1020L604 0ZM634 1200T523 1200T342 1228T231 1302T174 1405T156 1520H320Q326 1417 378 1369T523 1321T668 1369T726 1520H890Q888 1463 872 1406T816 1303T705 1229Z" />
<glyph unicode="&#x45f;" glyph-name="afii10193" horiz-adv-x="1131" d="M142 0V1082H322V131H809V1082H989V0H647V-408H484V0H142Z" />
<glyph unicode="&#x490;" glyph-name="afii10050" horiz-adv-x="1001" d="M774 1409V1820H954V1253H359V1H168V1409H774Z" />
<glyph unicode="&#x491;" glyph-name="afii10098" horiz-adv-x="842" d="M322 0H142V1082H615V1484H778V951H322V0Z" />
<glyph unicode="&#x1e80;" glyph-name="Wgrave" horiz-adv-x="1933" d="M1511 0H1283L1039 895Q1028 933 1016 985Q1006 1026 993 1084L969 1196L944 1083L921 984Q909 933 898 895L652 0H424L9 1409H208L461 514L494 389Q509 327 520 278L544 168L575 304Q582
332 589 363T604 424L618 482L632 532L877 1409H1060L1305 532L1318 482L1334 424Q1341 395 1348 364T1362 305Q1378 238 1393 168Q1394 168 1402 202L1422 289L1448 402Q1460 448 1478 514L1727 1409H1926L1511 0ZM993 1530L683 1747V1776H890L1107 1550V1530H993Z"
/>
<glyph unicode="&#x1e81;" glyph-name="wgrave" horiz-adv-x="1479" d="M1174 0H965L792 698Q784 725 776 765L759 843Q749 887 740 934Q731 889 721 845Q713 807 704 766Q694 727 686 694L508 0H300L-3 1082H175L358 347Q365 324 372 290L386 225L401 149Q409
187 418 223L434 286Q442 318 448 339L644 1082H837L1026 339Q1033 313 1041 280L1056 218L1072 149L1088 223L1102 288Q1108 314 1117 347L1308 1082H1484L1174 0ZM764 1201L434 1479V1508H641L858 1221V1201H764Z" />
<glyph unicode="&#x1e82;" glyph-name="Wacute" horiz-adv-x="1933" d="M1511 0H1283L1039 895Q1028 933 1016 985Q1006 1026 993 1084L969 1196L944 1083L921 984Q909 933 898 895L652 0H424L9 1409H208L461 514L494 389Q509 327 520 278L544 168L575 304Q582
332 589 363T604 424L618 482L632 532L877 1409H1060L1305 532L1318 482L1334 424Q1341 395 1348 364T1362 305Q1378 238 1393 168Q1394 168 1402 202L1422 289L1448 402Q1460 448 1478 514L1727 1409H1926L1511 0ZM831 1530V1550L1048 1776H1255V1747L945 1530H831Z"
/>
<glyph unicode="&#x1e83;" glyph-name="wacute" horiz-adv-x="1479" d="M1174 0H965L792 698Q784 725 776 765L759 843Q749 887 740 934Q731 889 721 845Q713 807 704 766Q694 727 686 694L508 0H300L-3 1082H175L358 347Q365 324 372 290L386 225L401 149Q409
187 418 223L434 286Q442 318 448 339L644 1082H837L1026 339Q1033 313 1041 280L1056 218L1072 149L1088 223L1102 288Q1108 314 1117 347L1308 1082H1484L1174 0ZM622 1201V1221L839 1508H1046V1479L716 1201H622Z" />
<glyph unicode="&#x1e84;" glyph-name="Wdieresis" horiz-adv-x="1933" d="M1511 0H1283L1039 895Q1028 933 1016 985Q1006 1026 993 1084L969 1196L944 1083L921 984Q909 933 898 895L652 0H424L9 1409H208L461 514L494 389Q509 327 520 278L544 168L575 304Q582
332 589 363T604 424L618 482L632 532L877 1409H1060L1305 532L1318 482L1334 424Q1341 395 1348 364T1362 305Q1378 238 1393 168Q1394 168 1402 202L1422 289L1448 402Q1460 448 1478 514L1727 1409H1926L1511 0ZM691 1530V1714H856V1530H691ZM1085 1530V1714H1248V1530H1085Z"
/>
<glyph unicode="&#x1e85;" glyph-name="wdieresis" horiz-adv-x="1479" d="M1174 0H965L792 698Q784 725 776 765L759 843Q749 887 740 934Q731 889 721 845Q713 807 704 766Q694 727 686 694L508 0H300L-3 1082H175L358 347Q365 324 372 290L386 225L401 149Q409
187 418 223L434 286Q442 318 448 339L644 1082H837L1026 339Q1033 313 1041 280L1056 218L1072 149L1088 223L1102 288Q1108 314 1117 347L1308 1082H1484L1174 0ZM462 1219V1403H627V1219H462ZM856 1219V1403H1019V1219H856Z" />
<glyph unicode="&#x1ef2;" glyph-name="Ygrave" horiz-adv-x="1366" d="M777 584V0H587V584L45 1409H255L684 738L1111 1409H1321L777 584ZM706 1530L396 1747V1776H603L820 1550V1530H706Z" />
<glyph unicode="&#x1ef3;" glyph-name="ygrave" horiz-adv-x="1024" d="M604 0Q566 -98 527 -176T438 -310T329 -395T191 -425Q157 -425 128 -423T67 -414V-279Q86 -282 110 -283T151 -285Q230 -285 298 -226T417 -38L434 5L5 1082H197L425 484L450 412L482 322L509
241Q521 205 523 196Q526 207 538 240L564 312L593 393L618 464L830 1082H1020L604 0ZM541 1201L211 1479V1508H418L635 1221V1201H541Z" />
<glyph unicode="&#x2013;" glyph-name="endash" horiz-adv-x="1139" d="M0 451V588H1138V451H0Z" />
<glyph unicode="&#x2014;" glyph-name="emdash" horiz-adv-x="2048" d="M0 451V588H2048V451H0Z" />
<glyph unicode="&#x2015;" glyph-name="afii00208" horiz-adv-x="2048" d="M0 451V588H2048V451H0Z" />
<glyph unicode="&#x2017;" glyph-name="underscoredbl" horiz-adv-x="1131" d="M-31 -178V-48H1162V-178H-31ZM-31 -217V-87H1162V-217H-31Z" />
<glyph unicode="&#x2018;" glyph-name="quoteleft" horiz-adv-x="455" d="M127 952V1098Q127 1150 132 1193T147 1273T172 1344T207 1409H328Q283 1344 258 1278T233 1147H322V952H127Z" />
<glyph unicode="&#x2019;" glyph-name="quoteright" horiz-adv-x="455" d="M328 1264Q328 1211 324 1168T309 1088T285 1017T250 952H127Q172 1017 196 1083T221 1212H133V1409H328V1264Z" />
<glyph unicode="&#x201a;" glyph-name="quotesinglbase" horiz-adv-x="455" d="M328 51Q328 -2 324 -45T309 -126T285 -197T250 -262H127Q172 -197 196 -131T221 0H133V195H328V51Z" />
<glyph unicode="&#x201b;" glyph-name="quotereversed" horiz-adv-x="455" d="M321 1409V1212H233Q233 1149 257 1083T327 952H204Q184 984 170 1017T145 1087T131 1168T126 1264V1409H321Z" />
<glyph unicode="&#x201c;" glyph-name="quotedblleft" horiz-adv-x="682" d="M75 952V1098Q75 1150 80 1193T95 1273T120 1344T155 1409H276Q231 1344 206 1278T181 1147H270V952H75ZM407 952V1098Q407 1150 412 1193T426 1273T450 1344T485 1409H607Q562 1344
538 1278T513 1147H601V952H407Z" />
<glyph unicode="&#x201d;" glyph-name="quotedblright" horiz-adv-x="682" d="M276 1264Q276 1211 272 1168T257 1088T233 1017T198 952H75Q120 1017 144 1083T169 1214H81V1409H276V1264ZM607 1264Q607 1211 602 1168T588 1088T563 1017T528 952H407Q452 1017
476 1083T501 1214H413V1409H607V1264Z" />
<glyph unicode="&#x201e;" glyph-name="quotedblbase" horiz-adv-x="682" d="M276 51Q276 -2 272 -45T257 -126T233 -197T198 -262H75Q120 -197 144 -131T169 0H81V195H276V51ZM607 51Q607 -2 602 -45T588 -126T563 -197T528 -262H407Q452 -197 476 -131T501 0H413V195H607V51Z"
/>
<glyph unicode="&#x2020;" glyph-name="dagger" horiz-adv-x="1139" d="M649 1000L627 -138H512L490 1000L138 973V1137L490 1108L462 1484H677L649 1108L1002 1137V973L649 1000Z" />
<glyph unicode="&#x2021;" glyph-name="daggerdbl" horiz-adv-x="1139" d="M497 1000L137 973V1137L497 1108L481 1484H656L640 1108L1001 1137V973L640 1000L614 670L640 343L1000 370V206L640 235L656 -141H481L497 235L136 206V370L497 343L523 670L497 1000Z" />
<glyph unicode="&#x2022;" glyph-name="bullet" horiz-adv-x="717" d="M636 682Q636 624 614 573T553 484T464 423T355 401Q298 401 249 423T162 483T103 573T81 682Q81 739 102 789T161 876T248 934T355 956Q413 956 464 935T553 876T613 789T636 682Z" />
<glyph unicode="&#x2026;" glyph-name="ellipsis" horiz-adv-x="2048" d="M278 0V219H473V0H278ZM929 0V219H1121V0H929ZM1576 0V219H1770V0H1576Z" />
<glyph unicode="&#x2030;" glyph-name="perthousand" horiz-adv-x="2048" d="M1845 355Q1845 428 1836 477T1808 555T1762 596T1699 608Q1661 608 1632 596T1584 555T1555 477T1545 355Q1545 284 1555 236T1584 158T1632 115T1697 102Q1731 102 1758 115T1804
157T1834 235T1845 355ZM1699 716Q1759 716 1812 700T1906 642T1969 531T1992 355Q1992 253 1969 183T1906 70T1811 8T1695 -11Q1632 -11 1578 7T1484 69T1421 182T1398 355Q1398 461 1421 530T1484 641T1580 699T1699 716ZM1190 355Q1190 428 1181 477T1153 555T1107
596T1044 608Q1006 608 977 596T929 555T900 477T890 355Q890 284 900 236T929 158T977 115T1042 102Q1076 102 1103 115T1149 157T1179 235T1190 355ZM1044 716Q1104 716 1157 700T1251 642T1314 531T1337 355Q1337 253 1314 183T1251 70T1156 8T1040 -11Q977
-11 923 7T829 69T766 182T743 355Q743 461 766 530T829 641T925 699T1044 716ZM502 1060Q502 1133 493 1182T465 1260T419 1301T356 1313Q318 1313 289 1301T241 1260T212 1182T202 1060Q202 989 212 941T241 863T289 820T354 807Q388 807 415 820T461 862T491
940T502 1060ZM356 1421Q416 1421 469 1405T563 1347T626 1236T649 1060Q649 958 626 888T563 775T468 713T352 694Q289 694 235 712T141 774T78 887T55 1060Q55 1166 78 1235T141 1346T237 1404T356 1421ZM304 0H149L1071 1409H1228L304 0Z" />
<glyph unicode="&#x2032;" glyph-name="minute" horiz-adv-x="384" d="M85 890L149 1409H345L187 890H85Z" />
<glyph unicode="&#x2033;" glyph-name="second" horiz-adv-x="725" d="M85 890L149 1409H345L187 890H85ZM427 890L491 1409H687L529 890H427Z" />
<glyph unicode="&#x2039;" glyph-name="guilsinglleft" horiz-adv-x="682" d="M424 141L88 506V569L424 940H591V909L256 537L593 170V141H424Z" />
<glyph unicode="&#x203a;" glyph-name="guilsinglright" horiz-adv-x="682" d="M257 141H89V170L427 537L91 909V940H257L594 569V506L257 141Z" />
<glyph unicode="&#x203c;" glyph-name="exclamdbl" horiz-adv-x="1024" d="M185 0V201H379V0H185ZM359 397H211L187 1409H383L359 397ZM641 0V201H835V0H641ZM815 397H667L643 1409H839L815 397Z" />
<glyph unicode="&#x203e;" glyph-name="uni203E" horiz-adv-x="682" d="M747 1503H-64V1620H747V1503Z" />
<glyph unicode="&#x2044;" glyph-name="fraction" horiz-adv-x="342" d="M-268 0H-416L465 1409H610L-268 0Z" />
<glyph unicode="&#x207f;" glyph-name="uni207F" horiz-adv-x="747" d="M514 519V917Q514 963 508 993T487 1042T449 1069T390 1077Q318 1077 276 1027T233 883V519H105V1030Q105 1050 105 1073T104 1116T102 1150T101 1169H220Q220 1166 221 1153T223 1122L225
1088Q226 1070 226 1058H228Q243 1086 262 1109T305 1148T362 1172T436 1181Q546 1181 594 1127T643 952V519H514Z" />
<glyph unicode="&#x20a3;" glyph-name="franc" horiz-adv-x="1139" d="M359 1254V778H1046V621H359V408H761V279H359V0H179V279H4V408H179V1409H1070V1254H359Z" />
<glyph unicode="&#x20a4;" glyph-name="lira" horiz-adv-x="1139" d="M1104 311Q1095 231 1067 173T994 76T892 19T767 0H69V154Q158 200 201 280T244 481V506H58V635H244V775H58V904H244V1034Q244 1126 268 1199T341 1324T467 1402T646 1430Q716 1430 777 1416T888
1372T973 1300T1027 1200L853 1143Q843 1174 824 1200T778 1244T719 1272T650 1282Q536 1282 480 1225T424 1042V904H832V775H424V635H832V506H424V499Q424 443 413 390T380 291T327 210T255 153H738Q776 153 809 162T869 193T914 247T941 329L1104 311Z" />
<glyph unicode="&#x20a7;" glyph-name="peseta" horiz-adv-x="2240" d="M2151 229Q2151 109 2060 45T1798 -20Q1723 -20 1663 -8T1556 31T1480 102T1434 210L1593 236Q1610 175 1659 146T1797 117Q1837 117 1871 122T1929 139T1967 172T1981 222T1964 272T1916
307T1842 334L1746 358Q1694 371 1649 386Q1601 402 1563 428T1501 494T1477 593Q1477 705 1561 764T1806 824Q1947 824 2029 772T2134 603L1973 586Q1967 614 1952 633T1914 664T1864 681T1807 686Q1652 686 1652 601Q1652 576 1668 558T1712 526T1781 501T1869
479T1967 453T2058 410T2125 340T2151 229ZM1407 8Q1372 -3 1335 -9T1250 -16Q1145 -16 1099 45T1052 229V682H948V813H1059L1112 1055H1222V813H1379V682H1222V268Q1222 190 1242 154T1318 117Q1341 117 1361 121T1407 131V8ZM772 983Q772 1117 690 1186T444 1256H339V700H452Q617
700 694 773T772 983ZM954 985Q954 893 924 814T833 676T681 583T469 549H339V0H158V1409H457Q582 1409 675 1379T830 1293T923 1159T954 985Z" />
<glyph unicode="&#x20ac;" glyph-name="Euro" horiz-adv-x="1139" d="M691 126Q791 126 851 176T925 317L1110 303Q1097 235 1066 176T983 74T858 5T687 -20Q567 -20 479 18T330 126T235 292T187 502H16L56 631H176Q175 639 174 662T173 709Q173 736 174 762T176
795H16L56 922H185Q200 1044 236 1138T334 1298T482 1396T684 1430Q781 1430 854 1405T979 1337T1062 1234T1107 1107L922 1093Q908 1184 848 1234T681 1284Q613 1284 560 1265T468 1202T403 1090T367 922H813L773 795H360Q358 779 358 756T357 709Q357 687 358
669T361 631H813L773 502H369Q378 421 399 352T458 233T554 155T691 126Z" />
<glyph unicode="&#x2105;" glyph-name="afii61248" horiz-adv-x="1813" d="M215 975Q215 900 225 838T258 731T319 661T411 636Q480 636 527 677T585 805L726 796Q720 742 698 693T637 605T543 545T415 522Q321 522 255 556T148 651T88 794T69 972Q69 1102 98
1188T176 1326T287 1399T414 1420Q482 1420 535 1400T626 1345T688 1263T721 1161L578 1150Q568 1222 527 1264T410 1307Q302 1307 259 1225T215 975ZM1596 434Q1596 533 1585 598T1553 703T1500 758T1428 774Q1386 774 1354 758T1300 702T1267 598T1256 434Q1256
339 1267 275T1300 172T1353 115T1426 98Q1465 98 1496 115T1550 171T1584 275T1596 434ZM523 0H368L1290 1409H1447L523 0ZM1744 434Q1744 309 1719 224T1650 86T1548 11T1424 -12T1301 10T1201 85T1134 222T1109 434Q1109 567 1133 654T1200 792T1301 864T1428
885Q1494 885 1551 865T1651 793T1719 654T1744 434Z" />
<glyph unicode="&#x2113;" glyph-name="afii61289" horiz-adv-x="662" d="M525 1122Q525 1174 518 1216T498 1289T464 1336T418 1353Q386 1353 367 1335T336 1287T321 1216T317 1129V622Q366 655 404 707T470 824T511 965T525 1122ZM433 78Q484 78 518 130T569
291H638Q618 137 558 59T389 -20Q278 -20 215 59T151 294V469Q119 452 86 438T19 411V484L87 512Q120 527 151 543V1130Q151 1189 163 1243T205 1338T284 1404T405 1429Q457 1429 496 1408T562 1348T602 1254T616 1129Q616 1030 594 940T533 774T438 639T317 542V298Q317
241 326 200T352 131T389 91T433 78Z" />
<glyph unicode="&#x2116;" glyph-name="afii61352" horiz-adv-x="2197" d="M1439 0V146H2074V0H1439ZM1935 690Q1935 771 1923 824T1888 910T1830 955T1750 968Q1704 968 1669 955T1609 909T1573 824T1560 690Q1560 608 1573 554T1610 469T1667 424T1742 411Q1788
411 1824 424T1885 468T1922 554T1935 690ZM2094 690Q2094 502 2006 401T1743 299Q1575 299 1487 399T1398 690Q1398 781 1419 853T1484 976T1593 1053T1747 1080Q1840 1080 1905 1054T2013 977T2074 855T2094 690ZM1062 0L342 1190Q343 1146 345 1102Q346 1064
347 1020T348 936V0H188V1409H390L1118 211Q1116 251 1114 297Q1112 349 1111 385Q1110 434 1110 485V1409H1272V0H1062Z" />
<glyph unicode="&#x2122;" glyph-name="trademark" horiz-adv-x="2048" d="M577 1298V634H443V1298H188V1409H838V1298H577ZM1691 634V1059V1253Q1686 1242 1682 1231Q1678 1222 1676 1213T1671 1199L1441 634H1333L1170 1047L1156 1084L1130 1154L1093 1253Q1092
1243 1092 1233Q1091 1225 1091 1216V1201V634H963V1409H1153L1376 846Q1378 842 1380 836T1385 822L1391 804L1427 896L1440 931L1452 962L1462 985Q1465 994 1465 996L1633 1409H1817V634H1691Z" />
<glyph unicode="&#x2126;" glyph-name="Omega" horiz-adv-x="1573" d="M635 1430T786 1430T1057 1387T1262 1263T1391 1065T1436 801Q1436 695 1407 600T1323 421T1190 268T1012 145Q1054 147 1093 150L1162 154Q1197 156 1220 156H1464V0H875V224Q971 275 1040
338T1154 472T1220 623T1241 788Q1241 904 1211 994T1122 1147T980 1241T787 1274Q678 1274 593 1242T450 1147T362 995T331 788Q331 703 352 624T417 473T531 338T697 224V0H108V156H352Q375 156 410 154L479 150Q518 147 560 145Q461 199 383 268T250 420T166
599T136 801Q136 948 181 1065T310 1263T514 1387Z" />
<glyph unicode="&#x212e;" glyph-name="estimated" horiz-adv-x="1229" d="M917 616V893Q898 913 869 934T801 972T716 1000T617 1011Q566 1011 523 1002T442 976T375 939T321 894V616H917ZM619 -34Q489 -34 390 12T224 137T123 318T88 531Q88 678 135 784T259
960T429 1063T619 1096Q731 1096 828 1057T996 944T1107 766T1148 531H321V175Q343 151 375 129T446 89T529 61T619 51Q694 51 752 66T856 112T941 185T1014 285L1086 243Q1050 186 1008 136T912 48T786 -12T619 -34Z" />
<glyph unicode="&#x215b;" glyph-name="oneeighth" horiz-adv-x="1708" d="M80 563V670H291V1290L89 1152V1272L299 1409H422V670H637V563H80ZM493 0H345L1226 1409H1371L493 0ZM1614 238Q1614 184 1597 139T1543 60T1450 9T1316 -10T1183 8T1089 60T1035 138T1017
237Q1017 283 1031 319T1069 381T1123 423T1186 444V447Q1150 455 1123 473T1076 518T1047 576T1037 643Q1037 688 1054 727T1107 796T1194 843T1314 860Q1386 860 1438 843T1525 795T1576 726T1593 642Q1593 607 1583 576T1554 518T1507 474T1443 448V445Q1479
439 1510 424T1565 382T1601 320T1614 238ZM1472 252Q1472 280 1466 306T1442 352T1394 384T1314 396Q1269 396 1240 384T1192 352T1167 305T1159 250Q1159 215 1166 186T1192 135T1240 103T1317 91T1393 102T1441 135T1465 186T1472 252ZM1451 631Q1451 659 1445
683T1424 724T1382 750T1314 760Q1275 760 1249 751T1207 724T1185 683T1178 631Q1178 608 1182 585T1201 542T1243 510T1315 497Q1363 497 1390 509T1430 541T1447 585T1451 631Z" />
<glyph unicode="&#x215c;" glyph-name="threeeighths" horiz-adv-x="1708" d="M493 0H345L1226 1409H1371L493 0ZM1614 238Q1614 184 1597 139T1543 60T1450 9T1316 -10T1183 8T1089 60T1035 138T1017 237Q1017 283 1031 319T1069 381T1123 423T1186 444V447Q1150
455 1123 473T1076 518T1047 576T1037 643Q1037 688 1054 727T1107 796T1194 843T1314 860Q1386 860 1438 843T1525 795T1576 726T1593 642Q1593 607 1583 576T1554 518T1507 474T1443 448V445Q1479 439 1510 424T1565 382T1601 320T1614 238ZM1472 252Q1472 280
1466 306T1442 352T1394 384T1314 396Q1269 396 1240 384T1192 352T1167 305T1159 250Q1159 215 1166 186T1192 135T1240 103T1317 91T1393 102T1441 135T1465 186T1472 252ZM1451 631Q1451 659 1445 683T1424 724T1382 750T1314 760Q1275 760 1249 751T1207 724T1185
683T1178 631Q1178 608 1182 585T1201 542T1243 510T1315 497Q1363 497 1390 509T1430 541T1447 585T1451 631ZM676 795Q676 679 599 615T379 551Q292 551 234 570T140 622T85 694T61 778L197 791Q206 724 250 690T379 655Q456 655 497 691T539 803Q539 848 521
875T474 916T413 935T350 940H289V1049H346Q375 1049 405 1055T461 1077T502 1119T518 1186Q518 1246 481 1280T373 1315Q305 1315 263 1280T215 1180L80 1192Q87 1250 112 1293T176 1364T267 1407T377 1421Q446 1421 498 1405T585 1359T637 1290T655 1204Q655
1129 612 1074T479 999V997Q531 992 568 974T630 928T665 867T676 795Z" />
<glyph unicode="&#x215d;" glyph-name="fiveeighths" horiz-adv-x="1708" d="M493 0H345L1226 1409H1371L493 0ZM1614 238Q1614 184 1597 139T1543 60T1450 9T1316 -10T1183 8T1089 60T1035 138T1017 237Q1017 283 1031 319T1069 381T1123 423T1186 444V447Q1150
455 1123 473T1076 518T1047 576T1037 643Q1037 688 1054 727T1107 796T1194 843T1314 860Q1386 860 1438 843T1525 795T1576 726T1593 642Q1593 607 1583 576T1554 518T1507 474T1443 448V445Q1479 439 1510 424T1565 382T1601 320T1614 238ZM1472 252Q1472 280
1466 306T1442 352T1394 384T1314 396Q1269 396 1240 384T1192 352T1167 305T1159 250Q1159 215 1166 186T1192 135T1240 103T1317 91T1393 102T1441 135T1465 186T1472 252ZM1451 631Q1451 659 1445 683T1424 724T1382 750T1314 760Q1275 760 1249 751T1207 724T1185
683T1178 631Q1178 608 1182 585T1201 542T1243 510T1315 497Q1363 497 1390 509T1430 541T1447 585T1451 631ZM676 835Q676 770 657 718T602 629T511 572T387 552Q321 552 271 568T183 614T124 684T93 773L226 788Q231 761 243 738T274 696T321 668T384 657Q455
657 498 699T541 835Q541 916 501 958T385 1001Q334 1001 296 983T234 941H105L138 1409H644V1296H246L227 1051Q256 1077 301 1093T401 1110Q468 1110 519 1091T605 1036T658 949T676 835Z" />
<glyph unicode="&#x215e;" glyph-name="seveneighths" horiz-adv-x="1708" d="M433 0H285L1166 1409H1311L433 0ZM1614 238Q1614 184 1597 139T1543 60T1450 9T1316 -10T1183 8T1089 60T1035 138T1017 237Q1017 283 1031 319T1069 381T1123 423T1186 444V447Q1150
455 1123 473T1076 518T1047 576T1037 643Q1037 688 1054 727T1107 796T1194 843T1314 860Q1386 860 1438 843T1525 795T1576 726T1593 642Q1593 607 1583 576T1554 518T1507 474T1443 448V445Q1479 439 1510 424T1565 382T1601 320T1614 238ZM1472 252Q1472 280
1466 306T1442 352T1394 384T1314 396Q1269 396 1240 384T1192 352T1167 305T1159 250Q1159 215 1166 186T1192 135T1240 103T1317 91T1393 102T1441 135T1465 186T1472 252ZM1451 631Q1451 659 1445 683T1424 724T1382 750T1314 760Q1275 760 1249 751T1207 724T1185
683T1178 631Q1178 608 1182 585T1201 542T1243 510T1315 497Q1363 497 1390 509T1430 541T1447 585T1451 631ZM734 1308Q670 1211 617 1123T526 947T466 766T444 564H311Q311 666 334 760T398 943T491 1120T605 1296H145V1409H734V1308Z" />
<glyph unicode="&#x2190;" glyph-name="arrowleft" horiz-adv-x="2048" d="M641 297Q670 263 699 214T760 100H688Q630 168 565 224T418 322V358Q500 400 565 456T688 580H760Q729 515 700 466T641 383H1630V297H641Z" />
<glyph unicode="&#x2191;" glyph-name="arrowup" horiz-adv-x="1024" d="M469 928Q435 899 386 870T272 809V881Q340 939 396 1004T494 1151H530Q572 1069 628 1004T752 881V809Q687 840 638 869T555 928V-61H469V928Z" />
<glyph unicode="&#x2192;" glyph-name="arrowright" horiz-adv-x="2048" d="M1407 383Q1378 417 1349 466T1288 580H1360Q1418 512 1483 456T1630 358V322Q1548 280 1483 224T1360 100H1288Q1319 165 1348 214T1407 297H418V383H1407Z" />
<glyph unicode="&#x2193;" glyph-name="arrowdown" horiz-adv-x="1024" d="M555 162Q589 191 638 220T752 281V209Q684 151 628 86T530 -61H494Q452 21 396 86T272 209V281Q337 250 386 221T469 162V1151H555V162Z" />
<glyph unicode="&#x2194;" glyph-name="arrowboth" horiz-adv-x="2048" d="M641 297Q670 263 699 214T760 100H688Q630 168 565 224T418 322V358Q500 400 565 456T688 580H760Q729 515 700 466T641 383H1407Q1378 417 1349 466T1288 580H1360Q1418 512 1483 456T1630
358V322Q1548 280 1483 224T1360 100H1288Q1319 165 1348 214T1407 297H641Z" />
<glyph unicode="&#x2195;" glyph-name="arrowupdn" horiz-adv-x="1024" d="M469 928Q435 899 386 870T272 809V881Q340 939 396 1004T494 1151H530Q572 1069 628 1004T752 881V809Q687 840 638 869T555 928V162Q589 191 638 220T752 281V209Q684 151 628 86T530
-61H494Q452 21 396 86T272 209V281Q337 250 386 221T469 162V928Z" />
<glyph unicode="&#x21a8;" glyph-name="arrowupdnbse" horiz-adv-x="1024" d="M469 928Q435 899 386 870T272 809V881Q340 939 396 1004T494 1151H530Q572 1069 628 1004T752 881V809Q687 840 638 869T555 928V162Q589 191 638 220T752 281V209Q684 151 628 86T530
-61H494Q452 21 396 86T272 209V281Q337 250 386 221T469 162V928ZM272 -104H752V-184H272V-104Z" />
<glyph unicode="&#x2202;" glyph-name="partialdiff" horiz-adv-x="1012" d="M743 680Q735 722 717 759T674 823T616 867T548 883Q495 883 452 858T376 790T318 693T277 580T254 464T246 358Q246 305 256 260T288 181T341 128T418 109Q484 109 538 158T633 288T703
471T743 680ZM954 938Q954 892 951 840T941 735T925 629T905 528Q874 400 826 297T713 122T567 12T389 -27Q296 -27 233 4T130 89T74 212T56 356Q56 416 67 487T101 631T161 770T249 889T366 972T515 1004Q557 1004 595 991T666 954T723 897T764 821H768Q769 846
770 875T772 938Q772 1134 707 1238T513 1343Q485 1343 456 1338T397 1323T341 1299T291 1268L327 1415Q369 1438 427 1457T552 1477Q665 1477 742 1433T866 1315T933 1143T954 938Z" />
<glyph unicode="&#x2206;" glyph-name="increment" horiz-adv-x="1253" d="M1049 156L711 1018Q692 1066 680 1099Q666 1140 655 1174L636 1233Q629 1257 628 1265Q626 1257 619 1233T600 1173L575 1097Q563 1060 545 1016L206 156H1049ZM5 141L522 1409H739L1249
141V0H4L5 141Z" />
<glyph unicode="&#x220f;" glyph-name="product" horiz-adv-x="1686" d="M1268 -434V1247H426V-434H235V1409H1452V-434H1268Z" />
<glyph unicode="&#x2211;" glyph-name="summation" horiz-adv-x="1460" d="M154 -434V-325L789 491L170 1303V1409H1260V1257H414L998 493L398 -282H1328V-434H154Z" />
<glyph unicode="&#x2212;" glyph-name="minus" horiz-adv-x="1196" d="M101 608V754H1096V608H101Z" />
<glyph unicode="&#x2215;" glyph-name="fraction" horiz-adv-x="342" d="M-268 0H-416L465 1409H610L-268 0Z" />
<glyph unicode="&#x2219;" glyph-name="middot" horiz-adv-x="569" d="M187 446V666H382V446H187Z" />
<glyph unicode="&#x221a;" glyph-name="radical" horiz-adv-x="1124" d="M622 -14H516L233 778H51V895H321L563 205L993 1620H1122L622 -14Z" />
<glyph unicode="&#x221e;" glyph-name="infinity" horiz-adv-x="1460" d="M664 596Q613 724 554 788T416 852Q373 852 338 832T279 777T241 695T227 594Q227 543 239 497T276 416T335 361T418 340Q488 340 548 403T664 596ZM1040 846Q970 846 911 783T795 590Q846
462 905 398T1042 334Q1085 334 1120 354T1181 409T1220 491T1234 592T1220 692T1180 772T1119 826T1040 846ZM1373 590Q1373 512 1351 442T1288 318T1190 234T1062 203Q965 203 881 269T727 485Q695 422 658 371T578 284T491 229T400 209Q331 209 274 236T175
314T110 435T87 596Q87 677 109 748T172 871T271 953T400 983Q494 983 578 916T729 700Q760 762 797 813T877 900T966 957T1064 977Q1133 977 1190 950T1287 872T1350 750T1373 590Z" />
<glyph unicode="&#x221f;" glyph-name="orthogonal" horiz-adv-x="2005" d="M408 1223H502V94H1632V0H408V1223Z" />
<glyph unicode="&#x2229;" glyph-name="intersection" horiz-adv-x="1472" d="M278 -2V510Q278 626 312 722T407 887T551 994T733 1032Q832 1032 916 994T1062 887T1159 722T1194 510V-2H1091V512Q1091 610 1065 687T991 819T878 901T735 930T592 902T480 820T407
688T381 510V-2H278Z" />
<glyph unicode="&#x222b;" glyph-name="integral'" horiz-adv-x="561" d="M36 -434Q0 -434 -37 -429T-98 -415V-268Q-78 -276 -47 -284T19 -292Q70 -292 103 -274T155 -223T183 -149T191 -59L189 1153Q189 1247 214 1314T284 1424T391 1487T529 1507Q563 1507
600 1503T660 1489V1341Q642 1351 612 1359T545 1368Q494 1368 461 1348T409 1296T381 1221T373 1135V-79Q373 -173 348 -240T279 -350T172 -413T36 -434Z" />
<glyph unicode="&#x2248;" glyph-name="approxequal" horiz-adv-x="1124" d="M808 336Q739 336 666 358Q597 379 521 406Q456 429 403 441T304 453Q266 453 234 447T171 430T113 402T56 365V506Q106 544 172 567T319 590Q359 590 399 584T477 567T554 544L628
518Q649 510 674 502L724 488Q750 481 775 477T824 473Q893 473 954 498T1068 565V418Q1036 395 1007 379T947 354T882 340T808 336ZM808 758Q739 758 667 779T521 827Q456 849 403 860T304 872Q266 872 234 866T171 849T113 822T56 784V928Q106 965 172 988T319
1012Q359 1012 399 1006T477 989T554 964L628 938Q649 930 674 922L724 908Q750 901 775 897T824 893Q893 893 954 918T1068 987V838Q1036 815 1007 800T947 776T882 762T808 758Z" />
<glyph unicode="&#x2260;" glyph-name="notequal" horiz-adv-x="1124" d="M448 344L296 55H151L302 344H65V492H376L566 856H65V1004H638L792 1296H935L783 1004H1060V856H710L519 492H1060V344H448Z" />
<glyph unicode="&#x2261;" glyph-name="equivalence" horiz-adv-x="1195" d="M100 600V748H1095V600H100ZM100 244V392H1095V244H100ZM100 956V1104H1095V956H100Z" />
</font>
</defs>
</svg>
