<?xml version="1.0" standalone="no"?>
<!DOCTYPE svg PUBLIC "-//W3C//DTD SVG 1.1//EN" "http://www.w3.org/Graphics/SVG/1.1/DTD/svg11.dtd" >
<svg xmlns="http://www.w3.org/2000/svg">
<metadata>
This is a custom SVG webfont generated by Font Squirrel.
Copyright   : Beke
</metadata>
<defs>
<font id="CReaderTRegular" horiz-adv-x="1024" >
<font-face units-per-em="2048" ascent="1638" descent="-410" />
<missing-glyph horiz-adv-x="512" />
<glyph unicode=" "  horiz-adv-x="512" />
<glyph unicode="&#x09;" horiz-adv-x="512" />
<glyph unicode="&#xa0;" horiz-adv-x="512" />
<glyph unicode="!" horiz-adv-x="681" d="M225 1243q0 -145 37 -434l57 -451h41l95 885q6 53 -28 98t-87 45q-115 0 -115 -143zM229 82q0 -47 32 -78t79 -31t79 31t32 78t-32 79t-79 32t-79 -32t-32 -79z" />
<glyph unicode="&#x22;" horiz-adv-x="835" d="M135 1276q0 -111 27 -238l49 -235h49q12 59 24.5 117.5t24.5 117.5q27 131 27 238q0 111 -100 110q-45 0 -73 -31.5t-28 -78.5zM502 1276q0 -111 26 -238l50 -235h49q12 59 24.5 117.5t24.5 117.5q27 131 26 238q0 111 -100 110q-45 0 -72.5 -31.5t-27.5 -78.5z" />
<glyph unicode="#" horiz-adv-x="1787" d="M68 348h495v-473h99v473h464v-473h99v473h493v86h-493v451h493v84h-493v491h-99v-491h-464v491h-99v-491h-495v-84h495v-451h-495v-86zM662 434v451h464v-451h-464z" />
<glyph unicode="$" d="M106 51q193 -78 355 -78v-127h63v127q158 0 277 103q117 100 117 258q0 178 -220 338q-86 63 -129 94t-45 33v514q135 -14 213 -100.5t78 -221.5h39v299q-209 88 -330 88v92h-63v-92q-145 0 -248 -90q-106 -92 -107 -237q0 -229 355 -430v-584q-68 0 -125 21.5t-98 60.5 t-64.5 93t-23.5 122h-44v-283zM264 1110q0 86 55.5 140.5t141.5 62.5v-473q-197 137 -197 270zM524 37v543q123 -92 154 -123q82 -82 82 -170q0 -49 -18.5 -92t-50.5 -77t-75 -54.5t-92 -26.5z" />
<glyph unicode="%" horiz-adv-x="1705" d="M70 1018q0 -150 69 -250q76 -117 219 -117q141 0 220 117q70 100 69 250q0 150 -69 250q-78 117 -220 116q-143 0 -219 -116q-69 -100 -69 -250zM229 1016q0 315 131 315q127 0 127 -311q0 -315 -131 -315q-127 0 -127 311zM330 -29h90l969 1415h-91zM1059 338 q0 -150 69 -250q78 -115 220 -115q141 0 219 115q70 100 69 250q0 150 -69 250q-78 117 -219 117q-143 0 -220 -117q-69 -100 -69 -250zM1219 336q0 315 131 315q127 0 127 -311q0 -315 -131 -315q-127 0 -127 311z" />
<glyph unicode="&#x26;" horiz-adv-x="1593" d="M72 266q0 -139 110 -221q100 -74 244 -74q223 0 440 193q174 -193 346 -193q125 0 209 76q78 70 107 197l-37 26q-35 -147 -182 -147q-143 0 -303 186q53 80 90 137.5t57 92.5q47 78 77 126t44 64q86 106 186 107v36h-418v-36q39 0 66 -37t27 -78q0 -145 -177 -352 q-143 174 -266 413q330 164 330 359q0 117 -78 181t-194 64q-74 0 -137.5 -23.5t-109.5 -66.5t-71.5 -103t-25.5 -134q0 -123 79 -301q-413 -224 -413 -492zM279 358q0 209 241 332q174 -330 295 -469q-174 -131 -287 -131q-109 0 -180 78q-69 77 -69 190zM575 1130 q0 78 51.5 130.5t129.5 52.5q68 0 108.5 -48t40.5 -116q0 -195 -246 -301q-84 163 -84 282z" />
<glyph unicode="'" horiz-adv-x="1351" d="M68 -94v1450h100v-1356h1114v-94h-1214z" />
<glyph unicode="(" horiz-adv-x="681" d="M84 639q0 -152 37 -289t107.5 -256t173 -217t235.5 -168v43q-360 195 -361 887q0 694 361 889v43q-270 -143 -411.5 -384t-141.5 -548z" />
<glyph unicode=")" horiz-adv-x="681" d="M45 -248v-43q270 143 411.5 383t141.5 547q0 150 -37 288t-107.5 258t-174 217t-234.5 169v-43q360 -195 361 -889q-1 -692 -361 -887z" />
<glyph unicode="*" d="M145 840q0 -31 22.5 -51.5t53.5 -20.5q57 0 148 90q104 104 125 113q0 -49 -33 -135q-31 -86 -31 -134q0 -109 82 -108q82 0 82 108q0 49 -33 134q-31 88 -31 135q20 -8 123 -113q86 -90 150 -90q31 0 53.5 20.5t22.5 51.5q0 74 -131 112q-115 33 -197 56l197 53 q131 33 131 115q0 31 -22.5 51t-53.5 20q-57 0 -148 -90q-104 -104 -125 -113q0 47 31 134q33 86 33 135q0 109 -82 108q-82 0 -82 -108q0 -47 31 -135q33 -84 33 -134l-127 123q-84 80 -146 80q-31 0 -53.5 -20.5t-22.5 -50.5q0 -74 131 -113q106 -35 197 -55l-197 -54 q-131 -32 -131 -114z" />
<glyph unicode="+" horiz-adv-x="1501" d="M68 633h630v-633h99v633h633v98h-633v633h-99v-633h-630v-98z" />
<glyph unicode="," horiz-adv-x="512" d="M111 80q0 -106 102 -107q8 0 21.5 4.5t27.5 9.5t24.5 9t12.5 4q27 0 27 -39q0 -43 -17.5 -84t-46.5 -74.5t-68.5 -59.5t-82.5 -38v-43q125 33 206 115q90 90 91 213q0 80 -43 141q-45 70 -125 70q-53 0 -91 -34t-38 -87z" />
<glyph unicode="-" horiz-adv-x="669" d="M82 381h518v158h-518v-158z" />
<glyph unicode="." horiz-adv-x="512" d="M145 82q0 -47 32 -78t79 -31t79 31t32 78t-32 79t-79 32t-79 -32t-32 -79z" />
<glyph unicode="/" horiz-adv-x="569" d="M0 -27h80l489 1448h-77z" />
<glyph unicode="0" d="M74 678q0 -256 94 -453q119 -252 344 -252q223 0 344 252q94 197 94 453t-94 452q-119 254 -344 254t-344 -254q-94 -196 -94 -452zM270 612q0 711 242 711q147 0 205 -229q37 -141 37 -349q0 -713 -242 -712q-139 0 -201 231q-41 158 -41 348z" />
<glyph unicode="1" d="M240 1223l14 -31q68 31 104 31q55 0 72 -68q8 -31 8 -111v-829q0 -111 -32 -143q-35 -35 -142 -35v-37h510v37q-119 0 -149 61q-20 39 -21 170v1116h-35z" />
<glyph unicode="2" d="M43 0h801l94 260h-37q-49 -109 -221 -108h-422q297 299 377 401q221 276 221 475q0 158 -115 260q-113 96 -270 96q-330 0 -387 -383h37q29 104 109.5 168t191.5 64q121 0 192 -90q68 -84 68 -207q0 -201 -240 -490q-41 -47 -140 -149t-259 -260v-37z" />
<glyph unicode="3" d="M82 80q0 -106 229 -107q229 0 381 117q162 125 162 354q0 260 -254 359q186 150 186 303q0 125 -96 203q-94 76 -223 75q-260 0 -363 -286l31 -17q94 166 256 166q104 0 167 -63.5t63 -167.5q0 -129 -93 -215q-82 -80 -217 -99v-30q166 0 275 -80q119 -88 119 -252 q0 -113 -70 -195t-180 -82q-53 0 -152 46q-104 47 -137 47q-84 0 -84 -76z" />
<glyph unicode="4" d="M31 356h573v-356h166v356h182v144h-182v884h-108l-631 -899v-129zM129 500l475 667v-667h-475z" />
<glyph unicode="5" d="M98 106q0 -72 84 -106q59 -27 146 -27q225 0 381 144q158 145 157 366q0 217 -172 363q-152 129 -381 158l95 188h407l74 164h-486l-260 -529q236 0 400 -104q195 -123 194 -344q0 -125 -88 -213q-86 -88 -211 -88q-43 0 -137 51t-123 51q-80 0 -80 -74z" />
<glyph unicode="6" d="M88 535q0 -215 107 -377q119 -184 325 -185q184 0 307 150q117 141 117 330q0 166 -88 278q-94 125 -256 125q-160 0 -287 -100q55 242 203 405q172 186 402 187v36q-358 0 -594 -245q-236 -244 -236 -604zM281 477q0 92 18 207q129 86 207 86q135 0 205 -149 q55 -121 55 -269q0 -125 -51 -213q-61 -106 -178 -106q-131 0 -201 166q-55 124 -55 278z" />
<glyph unicode="7" d="M76 1034l28 -10q53 92 117 130t168 38h385l-405 -1219h112l451 1346v37h-727z" />
<glyph unicode="8" d="M123 303q0 -154 121 -246q113 -84 268 -84q162 0 274 90q119 98 119 261q0 125 -102 245q-53 61 -207 183q125 76 186 137q94 94 95 201q0 137 -121 221q-109 74 -250 73q-154 0 -254 -81q-111 -90 -111 -238q0 -117 80 -217q45 -55 172 -164q-270 -191 -270 -381z M276 315q0 205 162 330q150 -123 205 -180q119 -125 119 -229q0 -47 -18.5 -84t-51.5 -64t-75 -41t-89 -14q-117 0 -188 84q-64 75 -64 198zM285 1130q0 86 71 142q63 51 154 51q104 0 163.5 -57.5t59.5 -161.5q0 -100 -53 -178q-16 -27 -50 -61t-81 -77q-70 57 -112 94.5 t-58 53.5q-94 100 -94 194z" />
<glyph unicode="9" d="M80 899q0 -160 90 -278q96 -127 254 -127q135 0 287 100q-63 -248 -205 -401q-166 -184 -397 -185v-35q352 0 589.5 244t237.5 600q0 217 -107 379q-123 188 -325 188q-195 0 -314 -149q-110 -139 -110 -336zM258 997q0 127 49 217q59 109 180 109q133 0 203 -168 q55 -129 55 -283q0 -68 -18 -202q-90 -86 -221 -86q-133 0 -197 149q-51 114 -51 264z" />
<glyph unicode=":" horiz-adv-x="569" d="M174 82q0 -47 32 -78t79 -31t78.5 31t31.5 78t-31.5 79t-78.5 32t-79 -32t-32 -79zM174 834q0 -47 32 -79t79 -32t78.5 31.5t31.5 79.5q0 47 -31.5 78.5t-78.5 31.5t-79 -31.5t-32 -78.5z" />
<glyph unicode=";" horiz-adv-x="569" d="M139 80q0 -106 103 -107q8 0 21 4.5t27.5 9.5t25 9t12.5 4q27 0 26 -39q0 -43 -17.5 -84t-46 -74.5t-68.5 -59.5t-83 -38v-43q125 33 207 115q90 90 90 213q0 80 -43 141q-45 70 -125 70q-53 0 -91 -34t-38 -87zM174 834q0 -47 32 -79t79 -32t78.5 31.5t31.5 79.5 q0 47 -31.5 78.5t-78.5 31.5t-79 -31.5t-32 -78.5z" />
<glyph unicode="&#x3c;" horiz-adv-x="978" d="M68 266q0 -172 125 -291q127 -121 294 -120q168 0 295 120q125 119 125 291q0 154 -106 281q-113 137 -262 137v580h39l110 -152h76l-272 385l-277 -385h72l114 152h39v-580q-154 0 -266 -135q-106 -125 -106 -283zM158 264q0 133 98 236q98 104 229 104q137 0 236 -100 q98 -102 98 -240q0 -129 -102 -225q-100 -94 -230 -94q-129 0 -229 94t-100 225z" />
<glyph unicode="=" horiz-adv-x="1746" d="M68 410h1607v100h-1607v-100zM68 762h1607v98h-1607v-98z" />
<glyph unicode="&#x3e;" horiz-adv-x="1693" d="M68 0l1556 610v107l-1556 596v-92l1437 -557l-1437 -576v-88z" />
<glyph unicode="?" horiz-adv-x="909" d="M88 1098q0 -55 27 -101q31 -53 84 -53q35 0 57.5 25.5t22.5 60.5q0 23 -31 84.5t-31 87.5q0 66 66 101q53 29 125 28q111 0 174 -88q55 -78 55 -192q0 -78 -115 -342q-115 -260 -114 -390h41q0 150 96 277q59 72 105 127t77 90q96 121 96 256q0 154 -110 240 q-102 78 -258 77q-150 0 -250 -69q-117 -78 -117 -219zM319 82q0 -47 32 -78t79 -31t79 31t32 78t-32 79t-79 32t-79 -32t-32 -79z" />
<glyph unicode="@" horiz-adv-x="1886" d="M100 440q0 -387 244 -635q242 -246 633 -245q295 0 532 168q246 166 330 444h-57q-111 -260 -320 -405.5t-489 -145.5q-352 0 -565 219t-213 574q0 395 229 667q242 289 633 289q283 0 463 -170q180 -168 180 -450q0 -205 -109 -406q-133 -240 -311 -240q-78 0 -78 76 q0 121 82 381q41 133 73 231.5t54 163.5l-156 -20l-34 -105q-8 59 -57.5 95.5t-110.5 36.5q-207 0 -387 -252q-166 -231 -166 -453q0 -88 47 -154q51 -74 137 -73q158 0 385 278l4 -4q-8 -39 -12 -72.5t-4 -64.5q0 -137 153 -137q254 0 412 231q139 207 139 473 q0 322 -196 504q-195 182 -521 182q-416 0 -679 -282q-265 -281 -265 -699zM659 295q0 152 127 377q137 246 275 246q59 0 92 -42t33 -104q0 -180 -119 -385q-135 -236 -293 -235q-55 0 -85 43t-30 100z" />
<glyph unicode="A" horiz-adv-x="1478" d="M20 0h426v37q-158 0 -157 90q0 49 127 328h524q123 -283 123 -326q0 -92 -139 -92v-37h534v37q-100 0 -160 78q-14 18 -34.5 59t-46.5 107l-461 1105h-37l-488 -1142q-20 -49 -39.5 -83t-35.5 -55q-51 -59 -136 -69v-37zM446 528l236 547l231 -547h-467z" />
<glyph unicode="B" horiz-adv-x="1366" d="M39 0h694q213 0 352 80q170 98 170 297q0 123 -92 213q-82 82 -211 104q106 31 173 109t67 188q0 197 -174 291q-139 74 -352 74h-627v-37q131 0 166 -49q27 -35 26 -174v-836q0 -133 -28 -174q-35 -49 -164 -49v-37zM424 100v553q29 4 72 7.5t100 3.5q174 0 289 -66 q141 -80 141 -244q0 -143 -119 -217q-100 -63 -252 -63q-127 -1 -231 26zM424 745v521q84 23 176 22q154 0 260 -65q123 -78 123 -224q0 -135 -102 -206q-90 -61 -232 -62q-78 0 -134 3t-91 11z" />
<glyph unicode="C" horiz-adv-x="1366" d="M76 651q0 -301 178 -487q180 -193 479 -193q375 0 561 346l-30 21q-92 -137 -189 -205q-109 -76 -264 -76q-254 0 -387 176q-119 156 -119 420q0 274 98 447q119 215 375 215q350 0 455 -389h31l-31 460h-35q-12 -94 -80 -94q-27 0 -153 45q-131 47 -195 47 q-311 0 -506 -213q-188 -207 -188 -520z" />
<glyph unicode="D" horiz-adv-x="1478" d="M39 0h631q328 0 526 176q207 182 207 508q0 373 -244 537q-203 135 -596 135h-524v-37q131 0 166 -49q27 -35 26 -174v-836q0 -133 -28 -174q-35 -49 -164 -49v-37zM424 100v1153q104 29 205 29q264 0 407 -174q137 -162 138 -430q0 -264 -136 -426q-145 -178 -401 -178 q-104 -1 -213 26z" />
<glyph unicode="E" horiz-adv-x="1251" d="M39 0h1051l114 340h-39q-41 -70 -74.5 -117t-62.5 -71q-88 -78 -215 -78h-278q-61 0 -86 21.5t-25 80.5v496h272q129 0 176 -35q49 -41 62 -166h37v473h-37q0 -125 -60 -166q-47 -33 -178 -33h-272v537h346q145 0 201 -43q57 -39 86 -180h41l-19 297h-1040v-37 q131 0 166 -49q27 -35 26 -174v-836q0 -133 -28 -174q-35 -49 -164 -49v-37z" />
<glyph unicode="F" horiz-adv-x="1138" d="M39 0h577v37q-133 0 -165 49q-27 35 -27 174v406h221q113 0 158 -39t45 -150h37v459h-37q0 -111 -45 -149.5t-158 -38.5h-221v534h274q147 0 213 -41q72 -45 113 -182h35l-12 297h-1008v-37q131 0 166 -49q27 -35 26 -174v-836q0 -133 -28 -174q-35 -49 -164 -49v-37z " />
<glyph unicode="G" horiz-adv-x="1478" d="M76 655q0 -324 221 -510q207 -174 534 -174q252 0 467 117v424q0 100 25 141q33 49 129 49v37h-539v-37q131 0 166 -49q27 -35 27 -174v-366q-115 -74 -275 -74q-256 0 -399 211q-127 186 -127 450q0 256 119 424q135 193 381 193q346 0 452 -359h37l-34 428h-37 q1 -10 1 -19q0 -66 -53 -67q-57 0 -186 43t-192 43q-313 0 -517 -208q-200 -212 -200 -523z" />
<glyph unicode="H" horiz-adv-x="1478" d="M39 0h577v37q-133 0 -165 49q-27 35 -27 174v393h631v-393q0 -133 -29 -174q-35 -49 -164 -49v-37h578v37q-133 0 -166 49q-27 35 -27 174v836q0 133 29 174q33 49 164 49v37h-578v-37q131 0 166 -49q27 -35 27 -174v-369h-631v369q0 133 29 174q33 49 163 49v37h-577 v-37q131 0 166 -49q27 -35 26 -174v-836q0 -133 -28 -174q-35 -49 -164 -49v-37z" />
<glyph unicode="I" horiz-adv-x="681" d="M51 0h578v37q-133 0 -166 49q-27 35 -27 174v836q0 133 29 174q33 49 164 49v37h-578v-37q131 0 166 -49q27 -35 27 -174v-836q0 -133 -29 -174q-35 -49 -164 -49v-37z" />
<glyph unicode="J" horiz-adv-x="796" d="M45 121q0 -78 70 -117q57 -33 137 -33q174 0 266 148q76 121 76 309v668q0 133 29 174q33 49 163 49v37h-577v-37q131 0 166 -49q27 -35 26 -174v-881q0 -176 -67 -176q-16 0 -80 94t-107 94q-102 0 -102 -106z" />
<glyph unicode="K" horiz-adv-x="1478" d="M39 0h577v37q-133 0 -165 49q-27 35 -27 174v416l450 -445q90 -90 91 -131q0 -63 -109 -63v-37h645v37q-109 0 -223 78q-35 23 -79 62.5t-101 94.5l-484 480l353 352q215 215 356 215v37h-498v-37q123 0 123 -62q0 -70 -188 -245l-336 -312v396q0 133 29 174 q33 49 163 49v37h-577v-37q131 0 166 -49q27 -35 26 -174v-836q0 -133 -28 -174q-35 -49 -164 -49v-37z" />
<glyph unicode="L" horiz-adv-x="1251" d="M39 0h1048l117 369l-33 6q-57 -143 -127 -207q-86 -80 -225 -80h-303q-66 0 -84 62q-8 25 -8 116v809q0 150 41 197t186 47v37h-612v-37q131 0 166 -49q27 -35 26 -174v-836q0 -133 -28 -174q-35 -49 -164 -49v-37z" />
<glyph unicode="M" horiz-adv-x="1820" d="M37 0h473v37q-123 0 -160 45q-33 39 -33 166l5 887l520 -1135h32l523 1135v-875q0 -133 -29 -174q-35 -49 -164 -49v-37h578v37q-133 0 -166 49q-27 35 -27 174v836q0 133 29 174q33 49 164 49v37h-383l-486 -1061l-491 1061h-385v-37q123 0 164 -55q29 -41 28 -166v-838 q0 -133 -28 -174q-35 -49 -164 -49v-37z" />
<glyph unicode="N" horiz-adv-x="1478" d="M-23 1319q88 0 152 -35q55 -33 115 -106v-918q0 -133 -29 -174q-35 -49 -164 -49v-37h473v37q-133 0 -166 49q-27 35 -26 166l4 815l889 -1087h37v1116q0 133 28 174q33 49 164 49v37h-473v-37q131 0 166 -49q27 -35 27 -166l-5 -762l-825 1014h-367v-37z" />
<glyph unicode="O" horiz-adv-x="1478" d="M76 678q0 -305 178 -502q184 -205 485 -205t486 205q178 197 178 502t-178 502q-184 207 -486 206q-301 0 -485 -206q-178 -197 -178 -502zM305 678q0 260 86 424q111 211 348 211q238 0 348 -211q86 -164 87 -424q0 -262 -87 -424q-111 -211 -348 -211q-238 0 -348 211 q-86 162 -86 424z" />
<glyph unicode="P" horiz-adv-x="1138" d="M39 0h577v37q-133 0 -165 49q-27 35 -27 174v375q137 -31 227 -31q184 0 297 94q125 100 125 279q0 188 -151 291q-131 88 -330 88h-553v-37q131 0 166 -49q27 -35 26 -174v-836q0 -133 -28 -174q-35 -49 -164 -49v-37zM424 694v561q68 18 139 19q63 0 115.5 -23.5 t89.5 -64.5t56.5 -97.5t19.5 -121.5q0 -111 -58 -195q-66 -98 -168 -98q-49 0 -98 5t-96 15z" />
<glyph unicode="Q" horiz-adv-x="1478" d="M76 678q0 -252 125 -430t360 -260q391 -391 834 -391v36q-295 0 -490 355q231 66 367 258q131 186 131 432q0 305 -178 502q-184 207 -486 206q-301 0 -485 -206q-178 -197 -178 -502zM305 678q0 260 86 424q111 211 348 211q238 0 348 -211q86 -164 87 -424 q0 -258 -89 -426q-111 -215 -346 -215q-238 0 -348 215q-86 166 -86 426z" />
<glyph unicode="R" horiz-adv-x="1366" d="M39 0h577v37q-133 0 -165 49q-27 35 -27 174v373h139l461 -633h362v37q-125 0 -212 76q-53 43 -148 178l-264 368q145 31 233 113q102 96 103 232q0 182 -152 274q-127 78 -319 78h-588v-37q131 0 166 -49q27 -35 26 -174v-836q0 -133 -28 -174q-35 -49 -164 -49v-37z M424 698v566l123 12q61 6 45 6q125 0 200.5 -81t75.5 -206q0 -158 -127 -235q-102 -61 -272 -62h-45z" />
<glyph unicode="S" horiz-adv-x="1138" d="M133 1024q0 -190 186 -307q35 -23 61 -36t40 -22q84 -47 145.5 -82.5t102.5 -62.5q186 -119 186 -244q0 -109 -84 -168q-76 -53 -186 -53q-174 0 -279.5 103.5t-122.5 281.5h-37v-463h37q8 74 62 74q59 0 180 -37q119 -37 180 -37q180 0 301 103q127 109 127 286 q0 141 -131 254q-43 37 -61 48l-357 204q-193 111 -192 230q0 90 71 149q70 61 164 62q170 0 275 -111q104 -109 104 -278h37v468h-37q-16 -78 -69 -77q-41 0 -144 39q-98 39 -157 38q-166 0 -279 -98q-123 -102 -123 -264z" />
<glyph unicode="T" horiz-adv-x="1251" d="M57 1038h37q0 229 232 230h202v-1008q0 -133 -28 -174q-35 -49 -164 -49v-37h577v37q-133 0 -165 49q-27 35 -27 174v1008h203q231 0 231 -230h37l-14 318h-1106z" />
<glyph unicode="U" horiz-adv-x="1478" d="M18 1319q133 0 168 -47q25 -35 25 -176v-611q0 -514 532 -514q522 0 523 521v604q0 141 24 176q37 47 168 47v37h-473v-37q131 0 166 -49q27 -35 27 -174v-504q0 -258 -80 -381q-98 -154 -344 -154q-217 0 -295 152q-55 106 -56 346v541q0 133 29 174q33 49 164 49v37 h-578v-37z" />
<glyph unicode="V" horiz-adv-x="1478" d="M20 1319q100 0 150 -57q23 -25 76 -148l497 -1143h37l463 1129q20 51 40 86t36 57q51 66 137 76v37h-418v-37q143 -14 144 -102q0 -41 -56 -177l-311 -764q-391 854 -391 947q0 53 53 75q12 4 37 10.5t61 10.5v37h-555v-37z" />
<glyph unicode="W" horiz-adv-x="1933" d="M25 1319q86 0 129 -51q23 -31 59 -129l418 -1168h41l305 858l307 -858h39l389 1127q20 57 35.5 95t28.5 54q49 72 137 72v37h-406v-37q150 0 150 -96q0 -47 -49 -185l-254 -710l-250 700q-53 154 -53 199q0 63 45 82q31 10 100 10v37h-530v-37q113 0 182 -131 q23 -41 82 -227l-230 -633l-276 788q-31 88 -31 117q0 86 133 86v37h-501v-37z" />
<glyph unicode="X" horiz-adv-x="1478" d="M18 0h482v37q-131 0 -131 78q0 51 149 237q66 82 115 142.5t82 101.5q295 -422 295 -481q0 -78 -133 -78v-37h581v37q-96 8 -153 55q-23 18 -50.5 49t-56.5 76l-358 535l254 323q47 59 82.5 100.5t58.5 61.5q90 82 192 82v37h-481v-37q145 0 146 -78q0 -57 -304 -418 q-256 360 -256 416q0 80 140 80v37h-627v-37q121 0 221 -90q29 -27 68 -75t86 -118l252 -368l-303 -385q-182 -231 -351 -246v-37z" />
<glyph unicode="Y" horiz-adv-x="1478" d="M27 1319q117 0 196 -123l420 -639v-297q0 -133 -29 -174q-35 -49 -163 -49v-37h577v37q-133 0 -166 49q-27 35 -26 174v315l344 543q127 201 276 201v37h-473v-37q137 0 137 -98q0 -66 -157 -303l-168 -254q-66 94 -114 164.5t-81 117.5q-152 225 -151 283q0 90 157 90 v37h-579v-37z" />
<glyph unicode="Z" horiz-adv-x="1251" d="M23 0h1103l64 358h-37q-29 -76 -54.5 -126t-47.5 -74q-70 -76 -207 -76h-561l893 1274h-1004l-29 -340h39q20 152 84 205t217 53h408l-868 -1237v-37z" />
<glyph unicode="[" horiz-adv-x="681" d="M168 -254h440v88h-280v1614h280v88h-440v-1790z" />
<glyph unicode="\" horiz-adv-x="1519" d="M68 102l61 -57l1038 1251l154 29l-8 -162l-1039 -1247l64 -59l969 1171l-15 -291l37 -6l107 721l-682 -199l6 -34l280 55z" />
<glyph unicode="]" horiz-adv-x="681" d="M74 -166v-88h440v1790h-440v-88h280v-1614h-280z" />
<glyph unicode="^" horiz-adv-x="1646" d="M70 -18l82 -82l671 669l672 -669l82 82l-672 669l672 672l-82 82l-672 -672l-671 672l-82 -82l671 -672z" />
<glyph unicode="_" horiz-adv-x="1351" d="M68 0v-92h1214v1448h-98v-1356h-1116z" />
<glyph unicode="a" horiz-adv-x="909" d="M70 211q0 -104 57 -171t162 -67q78 0 153 52q39 27 73 50t63 46q0 -147 110 -148q98 0 213 148v57q-80 -80 -106 -80q-41 0 -50 64q-2 10 -2 94v440q0 248 -301 248q-127 0 -221 -51q-117 -61 -117 -178q0 -98 84 -99q57 0 76 76q10 45 17 79l10 56q20 55 119 56 q111 0 147 -97q20 -49 21 -190q-131 -51 -210 -85t-108 -50q-190 -111 -190 -250zM236 254q0 98 126 182q23 14 76.5 40t139.5 61v-351q-125 -100 -197 -100q-66 0 -107 53q-38 45 -38 115z" />
<glyph unicode="b" d="M-4 1309l12 -35q43 16 70 16q72 0 72 -139v-1063q168 -115 335 -115q209 0 342 160q127 152 127 365q0 178 -82 303q-94 143 -266 143q-162 0 -291 -186v663h-45zM315 145v549q100 106 205 107q129 0 201 -121q59 -102 59 -240q0 -141 -53 -254q-68 -141 -197 -141 q-121 0 -215 100z" />
<glyph unicode="c" horiz-adv-x="909" d="M70 461q0 -201 94 -334q106 -154 297 -154q147 0 256 115q98 106 125 260l-29 14q-86 -236 -285 -235q-147 0 -229 141q-70 119 -70 277q0 133 56 223q63 106 190 106q88 0 117 -61q8 -29 15 -56.5t16 -56.5q25 -61 102 -61q90 0 90 84q0 98 -108 164q-94 57 -199 57 q-199 0 -322 -145q-116 -135 -116 -338z" />
<glyph unicode="d" d="M70 424q0 -180 94 -307q104 -143 276 -144q145 0 273 129v-129h45l276 111l-14 35q-43 -16 -70 -17q-72 0 -71 140v1179h-45l-277 -112l14 -35q43 16 70 16q72 0 72 -139v-285q-74 78 -203 78q-199 0 -324 -166q-116 -151 -116 -354zM256 496q0 145 51 249 q63 137 193 138q98 0 157 -84q55 -78 56 -178v-447q-84 -92 -176 -92q-143 0 -220 143q-61 113 -61 271z" />
<glyph unicode="e" horiz-adv-x="909" d="M70 442q0 -195 100 -325q111 -143 299 -144q147 0 252 109q94 98 123 252l-31 20q-78 -219 -274 -219q-164 0 -252 141q-78 121 -78 293h635q0 166 -94 269q-94 106 -256 106q-207 0 -322 -151q-102 -138 -102 -351zM211 631q0 94 61 166q61 74 154 73q104 0 156.5 -66.5 t52.5 -172.5h-424z" />
<glyph unicode="f" horiz-adv-x="681" d="M78 842h178v-574q0 -129 -23 -170q-35 -61 -151 -61v-37h510v37q-117 0 -150 61q-20 39 -20 170v574h235v73h-235v166q0 115 16 170q31 96 121 97q45 0 135 -91q88 -88 113 -88q31 0 56.5 26t25.5 56q0 78 -88 127q-78 43 -160 43q-385 0 -385 -506h-178v-73z" />
<glyph unicode="g" d="M57 -246q0 -98 160 -153q119 -41 244 -41q172 0 327 84q182 102 183 260q0 170 -191 217q-72 16 -325 16q-176 0 -176 62q0 59 75 116q68 -20 131 -20q152 0 254 78q113 86 113 233q0 113 -49 185q158 0 176 8q8 14 8 37q0 20 -8 34q-18 8 -256 9q-90 66 -221 65 q-158 0 -260 -88q-111 -92 -111 -246q0 -201 174 -276q-94 -82 -104 -94q-57 -59 -58 -123q0 -59 101 -103q-187 -192 -187 -260zM205 -174q0 61 88 174q123 -4 208 -8t136 -8q260 -18 260 -105q0 -109 -131 -160q-92 -39 -225 -38q-117 0 -205 26q-131 37 -131 119z M305 655q0 240 170 240q104 0 160 -109q43 -84 43 -200q0 -242 -172 -242q-106 0 -160 109q-41 85 -41 202z" />
<glyph unicode="h" d="M10 1309l15 -35q43 16 69 16q72 0 72 -139v-977q0 -80 -31 -108.5t-110 -28.5v-37h448v37q-78 0 -109.5 29.5t-31.5 107.5v516q125 131 231 131q145 0 146 -223v-424q0 -80 -31 -108.5t-111 -28.5v-37h449v37q-78 0 -110 29.5t-32 107.5v461q0 127 -51 209 q-61 100 -180 100q-92 0 -174 -61q-47 -35 -137 -131v669h-45z" />
<glyph unicode="i" horiz-adv-x="569" d="M55 831l15 -34q43 16 69 16q72 0 72 -139v-500q0 -80 -30.5 -108.5t-110.5 -28.5v-37h448v37q-80 0 -110.5 28.5t-30.5 108.5v770h-45zM193 1321q0 -43 28.5 -71.5t71.5 -28.5t71.5 28.5t28.5 71.5t-28.5 71.5t-71.5 28.5t-71.5 -28.5t-28.5 -71.5z" />
<glyph unicode="j" horiz-adv-x="569" d="M-160 -340q0 -53 64 -80q47 -20 108 -20q193 0 285 137q80 119 80 317v930h-45l-277 -113l15 -34q43 16 69 16q72 0 72 -139v-862q0 -172 -90 -172q-18 0 -96 53t-103 53q-35 0 -58.5 -25.5t-23.5 -60.5zM193 1321q0 -43 28.5 -71.5t71.5 -28.5t71.5 28.5t28.5 71.5 t-28.5 71.5t-71.5 28.5t-71.5 -28.5t-28.5 -71.5z" />
<glyph unicode="k" d="M10 1309l15 -35q43 16 69 16q72 0 72 -139v-977q0 -80 -31 -108.5t-110 -28.5v-37h448v37q-80 0 -110.5 28.5t-30.5 108.5v1247h-45zM334 510q322 -389 321 -434q0 -16 -16 -33q-18 -6 -47 -6v-37h444v37q-82 0 -151 53q-33 27 -109 121l-278 350q203 197 219 209 q127 109 272 109v36h-401v-36q74 0 74 -45q0 -41 -328 -324z" />
<glyph unicode="l" horiz-adv-x="569" d="M55 1309l15 -35q43 16 69 16q72 0 72 -139v-977q0 -80 -30.5 -108.5t-110.5 -28.5v-37h448v37q-80 0 -110.5 28.5t-30.5 108.5v1247h-45z" />
<glyph unicode="m" horiz-adv-x="1593" d="M10 831l15 -34q43 16 69 16q72 0 72 -139v-500q0 -80 -31 -108.5t-110 -28.5v-37h448v37q-78 0 -109.5 29.5t-31.5 107.5v524q131 123 237 123q96 0 131 -78q20 -47 21 -163v-406q0 -80 -31 -108.5t-110 -28.5v-37h448v37q-78 0 -109.5 29.5t-31.5 107.5v524 q131 123 237 123q96 0 131 -78q20 -47 21 -163v-406q0 -80 -31 -108.5t-110 -28.5v-37h448v37q-78 0 -109.5 29.5t-31.5 107.5v461q0 129 -56 213q-66 96 -186 96q-98 0 -182 -59q-27 -20 -61.5 -54t-75.5 -86q-6 43 -25.5 80t-50.5 62.5t-71 41t-83 15.5q-90 0 -178 -63 q-49 -37 -141 -131v194h-45z" />
<glyph unicode="n" d="M10 831l15 -34q43 16 69 16q72 0 72 -139v-500q0 -80 -31 -108.5t-110 -28.5v-37h448v37q-78 0 -109.5 29.5t-31.5 107.5v516q125 131 231 131q145 0 146 -223v-424q0 -80 -31 -108.5t-111 -28.5v-37h449v37q-78 0 -110 29.5t-32 107.5v461q0 127 -51 209 q-61 100 -180 100q-92 0 -174 -61q-47 -35 -137 -131v192h-45z" />
<glyph unicode="o" d="M70 449q0 -195 116 -332q119 -143 314 -144q207 0 334 152q121 145 120 354q0 199 -123 332q-121 133 -317 133q-197 0 -326 -151q-118 -143 -118 -344zM256 537q0 338 223 337q154 0 232 -172q57 -127 57 -309q0 -352 -221 -352q-156 0 -232 180q-59 142 -59 316z" />
<glyph unicode="p" d="M-6 -397v-37h479v37q-88 0 -121 22q-37 27 -37 115v313q76 -80 213 -80q207 0 320 162q102 145 102 359q0 178 -82 303q-96 147 -262 147q-160 0 -291 -211v211h-45l-274 -113l12 -34q43 16 70 16q72 0 72 -139v-934q0 -84 -36 -110.5t-120 -26.5zM315 285v381 q119 135 211 135q129 0 197 -142q53 -113 53 -256q0 -141 -51 -241q-66 -129 -193 -129q-217 0 -217 252z" />
<glyph unicode="q" d="M70 412q0 -172 86 -297q94 -141 260 -142q139 0 297 185v-418q0 -84 -36 -110.5t-122 -26.5v-37h481v37q-88 0 -121 22q-37 27 -36 115v1204h-35l-111 -67q-80 68 -188 67q-219 0 -350 -160q-125 -149 -125 -372zM244 483q0 154 55 256q70 131 209 131q205 0 205 -215 v-434q-80 -106 -201 -106q-139 0 -211 121q-57 95 -57 247z" />
<glyph unicode="r" horiz-adv-x="681" d="M10 831l15 -34q43 16 69 16q72 0 72 -139v-500q0 -80 -31 -108.5t-110 -28.5v-37h477v37q-119 0 -150 55q-20 35 -20 166v395q74 154 131 154q113 -68 145 -68q37 0 62.5 28t25.5 64q0 49 -39 81t-90 32q-106 0 -235 -196v196h-45z" />
<glyph unicode="s" horiz-adv-x="796" d="M104 670q0 -117 123 -199q78 -41 135.5 -72.5t96.5 -52.5q123 -72 123 -174q0 -66 -45 -102.5t-113 -36.5q-113 0 -193 86q-72 76 -88 194h-37v-325h37q6 25 37 24q39 0 117 -18q74 -20 119 -21q125 0 215 72q98 76 98 201q0 152 -131 221q-88 47 -148.5 79t-95.5 48 q-131 70 -131 164q0 59 47 92t109 33q190 0 246 -252h37v313h-37l-17 -31l-26 -8q-35 4 -95 21q-66 18 -98 18q-129 0 -207 -72.5t-78 -201.5z" />
<glyph unicode="t" horiz-adv-x="569" d="M16 842h144v-635q0 -90 41 -150q45 -68 133 -67q162 0 235 194h-41q-27 -82 -106 -82q-66 0 -86 62q-10 35 -10 115v563h215v73h-215v302h-31q-106 -264 -279 -334v-41z" />
<glyph unicode="u" d="M6 879q96 0 125 -31q27 -29 27 -129v-447q0 -123 53 -206q61 -92 180 -93q133 0 311 193v-193h46l276 111l-14 35q-43 -16 -70 -17q-72 0 -72 140v673h-317v-36q96 0 125 -31q27 -29 26 -129v-494q-125 -131 -225 -131q-154 0 -153 185v636h-318v-36z" />
<glyph unicode="v" d="M18 879q74 -10 111 -50q14 -14 28.5 -40.5t30.5 -65.5l316 -750h41l315 762q57 143 146 144v36h-299v-36q104 0 104 -54q0 -51 -238 -606q-233 518 -233 586q0 74 109 74v36h-431v-36z" />
<glyph unicode="w" horiz-adv-x="1478" d="M16 879q70 -12 103 -56q20 -23 51 -106l285 -744h37l268 584l227 -584h43l295 766q53 139 137 140v36h-288v-36q96 0 96 -56q0 -84 -213 -587q-215 492 -215 567q0 76 121 76v36h-437v-36q102 0 138 -74q16 -37 18 -51q10 -29 20.5 -55.5t20.5 -55.5l-195 -428 q-215 530 -215 600q0 63 86 64v36h-383v-36z" />
<glyph unicode="x" d="M27 879q115 0 233 -174q27 -41 66 -100.5t90 -141.5q-72 -100 -116 -160.5t-60 -83.5q-145 -182 -205 -182v-37h299v37q-90 0 -90 53t213 316q199 -279 198 -322q0 -47 -88 -47v-37h432v37q-74 0 -135 65q-10 10 -92 127l-215 308q125 174 150 204q113 137 194 138v36 h-309v-36q72 0 72 -50q0 -27 -148 -229q-133 199 -133 227q0 51 76 52v36h-432v-36z" />
<glyph unicode="y" d="M12 879q94 -8 172 -174l320 -668q-29 -76 -47.5 -121t-26.5 -61q-66 -127 -131 -127q-23 0 -68 18q-47 18 -67 18q-104 0 -105 -90q0 -53 41 -83.5t97 -30.5q94 0 184 84q76 70 117 172l391 956q43 106 123 107v36h-299v-36q92 0 92 -52q0 -82 -98 -305l-123 -280 q-53 104 -91 174.5t-59 111.5q-106 211 -106 277q0 74 110 74v36h-426v-36z" />
<glyph unicode="z" horiz-adv-x="909" d="M37 0h809l12 281h-37q-14 -135 -63 -175q-47 -37 -189 -36h-309l612 809v36h-770v-253h37q12 125 62 157q39 27 170 27h274l-608 -809v-37z" />
<glyph unicode="{" horiz-adv-x="1374" d="M68 655l739 -788h115l-732 788l717 799h-114zM455 655l735 -788h115l-727 788l712 799h-114z" />
<glyph unicode="|" horiz-adv-x="1759" d="M68 229h1353q27 0 27 -28l-12 -25l-267 -190l23 -25l498 315l-498 310l-23 -23l267 -198l12 -23q0 -27 -27 -27h-1353v-86zM68 807l499 -322l25 27l-268 195l-13 20q0 27 27 27h1352v90h-1352q-27 0 -27 26l13 23l268 199l-25 24z" />
<glyph unicode="}" horiz-adv-x="1374" d="M68 -133h118l736 788l-721 799h-119l715 -799zM455 -133h114l736 788l-721 799h-115l715 -799z" />
<glyph unicode="~" horiz-adv-x="1751" d="M68 467l499 -451l31 39l-158 158l4 49h867v-49l-162 -158l35 -39l495 451l-495 434l-35 -39l162 -157v-48h-867l-4 48l158 157l-31 39zM186 467l127 106h1127l123 -106l-127 -121h-1121z" />
<glyph unicode="&#xa1;" horiz-adv-x="1251" d="M25 377l206 166v-283q0 -133 -28 -174q-35 -49 -164 -49v-37h1048l117 369l-33 6q-57 -143 -127 -207q-86 -80 -225 -80h-303q-66 0 -84 62q-8 25 -8 116v434l227 193v94l-227 -186v274q0 150 41 197t186 47v37h-612v-37q131 0 166 -49q27 -35 26 -174v-455l-206 -172 v-92z" />
<glyph unicode="&#xa2;" horiz-adv-x="1331" d="M68 -31v-96h1194v96h-1194zM68 141h1194v101h-1194v-101zM68 895h546v-469h99v469h549v100h-549v473h-99v-473h-546v-100z" />
<glyph unicode="&#xa3;" horiz-adv-x="1331" d="M68 330h546v-471h99v471h549v98h-549v467h-99v-467h-546v-98zM68 1083h1194v101h-1194v-101zM68 1358h1194v98h-1194v-98z" />
<glyph unicode="&#xa4;" horiz-adv-x="1331" d="M68 475h546v-475h99v475h549v100h-549v467h-99v-467h-546v-100zM68 1225h1194v100h-1194v-100z" />
<glyph unicode="&#xa5;" horiz-adv-x="1331" d="M68 0h1194v98h-1194v-98zM68 754h546v-469h99v469h549v100h-549v475h-99v-475h-546v-100z" />
<glyph unicode="&#xa7;" horiz-adv-x="1755" d="M68 442q0 -150 112 -274q115 -133 260 -133q113 0 189 51q23 14 55.5 47t77.5 86q86 98 117 113q57 -72 94 -131q80 -125 131 -168q76 -63 199 -64q201 0 299 156q84 133 84 344q0 178 -107 309q-115 141 -289 142q-203 0 -354 -263q-57 -100 -70 -108q-59 72 -100 120 t-64 76q-82 94 -231 95q-170 0 -289 -115q-114 -115 -114 -283zM76 1049h1607v98h-1607v-98zM76 1290h1607v99h-1607v-99zM115 457q0 137 94 223t233 86q121 0 248 -92q135 -102 135 -219q0 -88 -141 -219q-137 -131 -227 -132q-166 0 -254 92.5t-88 260.5zM934 401 q0 106 145.5 258t251.5 152q131 0 228 -109q94 -106 94 -243q0 -141 -88 -242q-92 -106 -232 -106q-74 0 -130 11t-100 37.5t-80 69.5t-67 107q-22 49 -22 65z" />
<glyph unicode="&#xa9;" horiz-adv-x="569" d="M33 442l178 148v-416q0 -80 -30.5 -108.5t-110.5 -28.5v-37h448v37q-80 0 -110.5 28.5t-30.5 108.5v553l178 145v84l-178 -145v610h-45l-277 -112l15 -35q43 16 69 16q72 0 72 -139v-477l-178 -148v-84z" />
<glyph unicode="&#xaa;" horiz-adv-x="1478" d="M37 672h194v-412q0 -133 -28 -174q-35 -49 -164 -49v-37h631q328 0 526 176q207 182 207 508q0 373 -244 537q-203 135 -596 135h-524v-37q131 0 166 -49q27 -35 26 -174v-351h-194v-73zM424 100v572h393v73h-393v508q104 29 205 29q264 0 407 -174q137 -162 138 -430 q0 -264 -136 -426q-145 -178 -401 -178q-104 -1 -213 26z" />
<glyph unicode="&#xab;" horiz-adv-x="1478" d="M76 678q0 -309 200 -516l-131 -162l60 -45l127 156q176 -139 407 -140q301 0 486 205q178 197 178 502q0 307 -197 514l131 164l-57 43l-127 -158q-176 145 -414 145q-301 0 -485 -206q-178 -197 -178 -502zM305 678q0 260 86 424q111 211 348 211q225 0 326 -180 l-686 -846q-74 160 -74 391zM418 215l684 848q72 -154 72 -385q0 -262 -87 -424q-111 -211 -348 -211q-215 0 -321 172z" />
<glyph unicode="&#xad;" horiz-adv-x="669" d="M82 381h518v158h-518v-158z" />
<glyph unicode="&#xae;" d="M39 -20l47 -43l135 147q119 -111 279 -111q207 0 334 152q121 145 120 354q0 178 -106 305l137 154l-47 43l-133 -150q-127 113 -291 113q-197 0 -326 -151q-119 -143 -118 -344q0 -184 108 -318zM256 537q0 338 223 337q143 0 221 -159l-399 -447q-45 124 -45 269z M328 205l399 444q41 -123 41 -256q0 -352 -221 -352q-141 0 -219 164z" />
<glyph unicode="&#xb0;" horiz-adv-x="1628" d="M68 664q0 -307 217 -518.5t526 -211.5t528 209q219 213 220 521q0 309 -218 514q-215 209 -522 208q-307 0 -526 -206q-225 -213 -225 -516zM162 664q0 268 192 448q195 182 461 182q274 0 461 -180q188 -182 188 -450q0 -270 -190.5 -454.5t-462.5 -184.5 q-270 0 -459 186q-190 187 -190 453zM303 621h457v-451h90v451h469v88h-469v446h-90v-446h-457v-88z" />
<glyph unicode="&#xb2;" d="M43 0h801l94 260h-37q-49 -109 -221 -108h-422q297 299 377 401q221 276 221 475q0 158 -115 260q-113 96 -270 96q-330 0 -387 -383h37q29 104 109.5 168t191.5 64q121 0 192 -90q68 -84 68 -207q0 -201 -240 -490q-41 -47 -140 -149t-259 -260v-37z" />
<glyph unicode="&#xb3;" d="M82 80q0 -106 229 -107q229 0 381 117q162 125 162 354q0 260 -254 359q186 150 186 303q0 125 -96 203q-94 76 -223 75q-260 0 -363 -286l31 -17q94 166 256 166q104 0 167 -63.5t63 -167.5q0 -129 -93 -215q-82 -80 -217 -99v-30q166 0 275 -80q119 -88 119 -252 q0 -113 -70 -195t-180 -82q-53 0 -152 46q-104 47 -137 47q-84 0 -84 -76z" />
<glyph unicode="&#xb4;" horiz-adv-x="1351" d="M68 -94v1450h100v-1356h1114v-94h-1214z" />
<glyph unicode="&#xb6;" horiz-adv-x="1617" d="M68 647q0 -313 219 -514q211 -193 528 -192q307 0 520 202.5t213 511.5h-94q0 -276 -180 -456.5t-455 -180.5q-276 0 -463 172q-195 178 -194 451q0 291 182 469q180 178 475 178q311 0 506 -246l-203 -47l342 -75v362l-100 -166q-57 119 -238 193q-152 63 -307 63 q-330 0 -536 -198q-215 -201 -215 -527z" />
<glyph unicode="&#xb9;" d="M240 1223l14 -31q68 31 104 31q55 0 72 -68q8 -31 8 -111v-829q0 -111 -32 -143q-35 -35 -142 -35v-37h510v37q-119 0 -149 61q-20 39 -21 170v1116h-35z" />
<glyph unicode="&#xba;" horiz-adv-x="770" d="M51 -236h164l481 895l-481 897h-164l430 -897z" />
<glyph unicode="&#xbb;" horiz-adv-x="1501" d="M70 641h1362v96h-1362v-96z" />
<glyph unicode="&#xbf;" horiz-adv-x="1632" d="M68 -94h1495v1472h-1495v-1472zM168 0v1282h1296v-1282h-1296zM309 606h451v-467h98v467h467v96h-467v439h-98v-439h-451v-96z" />
<glyph unicode="&#xc0;" d="M70 424q0 -180 94 -307q104 -143 276 -144q145 0 273 129v-129h45l276 111l-14 35q-43 -16 -70 -17q-72 0 -71 140v868h110v41h-110v270h-45l-277 -112l14 -35q43 16 70 16q72 0 72 -139h-205v-41h205v-244q-74 78 -203 78q-199 0 -324 -166q-116 -151 -116 -354z M256 496q0 145 51 249q63 137 193 138q98 0 157 -84q55 -78 56 -178v-447q-84 -92 -176 -92q-143 0 -220 143q-61 113 -61 271z" />
<glyph unicode="&#xc1;" horiz-adv-x="1628" d="M68 664q0 -307 217 -518.5t526 -211.5t528 209q219 213 220 521q0 309 -218 514q-215 209 -522 208q-307 0 -526 -206q-225 -213 -225 -516zM162 664q0 268 192 448q195 182 461 182q274 0 461 -180q188 -182 188 -450q0 -270 -190.5 -454.5t-462.5 -184.5 q-270 0 -459 186q-190 187 -190 453z" />
<glyph unicode="&#xc2;" horiz-adv-x="1628" d="M68 664q0 -307 217 -518.5t526 -211.5t528 209q219 213 220 521q0 309 -218 514q-215 209 -522 208q-307 0 -526 -206q-225 -213 -225 -516zM162 664q0 268 192 448q195 182 461 182q274 0 461 -180q188 -182 188 -450q0 -270 -190.5 -454.5t-462.5 -184.5 q-270 0 -459 186q-190 187 -190 453zM721 664q0 -35 25.5 -59.5t60.5 -24.5q37 0 62.5 23.5t25.5 60.5q0 88 -88 88q-35 0 -60.5 -26.5t-25.5 -61.5z" />
<glyph unicode="&#xc3;" horiz-adv-x="770" d="M72 659l481 -895h164l-430 895l430 897h-164z" />
<glyph unicode="&#xc4;" horiz-adv-x="1892" d="M68 0h1753q0 594 -492 856q-176 94 -405 94q-215 0 -404 -112q-452 -269 -452 -838zM158 96q0 307 229 543q231 238 533 238q326 0 563 -230q240 -231 239 -551h-1564z" />
<glyph unicode="&#xc5;" horiz-adv-x="1710" d="M68 -76h1572l-792 1596zM203 0l645 1329l657 -1329h-1302z" />
<glyph unicode="&#xc6;" horiz-adv-x="16" d="M199 1077h32l250 211l250 -211h33l-191 330h-184z" />
<glyph unicode="&#xc7;" horiz-adv-x="16" d="M442 1772l293 -347h35l-104 347h-224z" />
<glyph unicode="&#xc8;" horiz-adv-x="1882" d="M72 737q0 -111 80 -209q47 -57 84 -100l61 -72q80 -96 80 -186q0 -31 -27 -86q-25 -59 -24 -78q0 -170 616 -170t617 170q0 23 -27 78q-25 57 -25 86q0 92 80 188q47 57 84 98.5t62 69.5q80 100 79 211q0 166 -96 260.5t-262 94.5q-195 0 -338 -150q16 76 17 121 q0 125 -146 199v94h90v90h-90v90h-90v-90h-90v-90h90v-94q-145 -74 -145 -197q0 -47 16 -123q-137 150 -330 150q-168 0 -267 -94.5t-99 -260.5zM143 745q0 61 22.5 111.5t62.5 86.5t94.5 55.5t115.5 19.5q141 0 299 -141q160 -139 160 -279v-133q-291 0 -508 -86 q-66 68 -105.5 108.5t-52.5 57.5q-88 108 -88 200zM426 59q33 51 33 119t-33 125q227 78 516 78t516 -78q-35 -53 -35 -125q0 -59 35 -119q-188 74 -516 74q-330 0 -516 -74zM451 -8q133 63 491 63q362 0 492 -63q-137 -76 -492 -76q-358 0 -491 76zM821 1051q0 55 34 95 t87 40q55 0 88 -39t33 -94q0 -82 -43 -187q-27 -59 -45.5 -105t-32.5 -75q-121 283 -121 365zM987 465v133q0 139 158 279q160 141 301 141q125 0 209 -72q86 -78 86 -201q0 -86 -90 -200q-16 -20 -54 -61.5t-102 -104.5q-219 86 -508 86z" />
<glyph unicode="&#xc9;" horiz-adv-x="16" d="M209 1464l293 -346h35l-105 346h-223z" />
<glyph unicode="&#xca;" horiz-adv-x="1890" d="M68 1120q0 -43 32.5 -77.5t75.5 -34.5l119 -568q4 -20 23.5 -58t54.5 -93q61 -98 61 -154q0 -25 -26 -76q-25 -49 -25 -69q0 -25 51 -62q127 -90 445 -90q631 0 630 152q0 10 -26 61q-25 55 -25 84q0 55 62 154q35 55 54 93t23 58l119 568q43 0 76 34.5t33 77.5 q0 49 -34 83t-83 34t-83 -34t-34 -83q0 -55 45 -94l-252 -461l-12 594q37 8 62.5 42t25.5 73q0 49 -33.5 83t-83.5 34q-49 0 -82.5 -34t-33.5 -83q0 -74 57 -100l-192 -560l-101 609q72 37 72 108q0 49 -34 83t-83 34t-83 -34t-34 -83q0 -72 72 -108l-100 -609l-193 560 q57 31 58 100q0 49 -34 83t-83 34t-83 -34t-34 -83q0 -94 88 -115l-12 -594l-252 461q45 45 45 94t-34 83t-83 34t-82.5 -34t-33.5 -83zM125 1120q0 20 19.5 40t39.5 20q59 0 60 -60q0 -59 -60 -59q-59 0 -59 59zM258 881l246 -432l61 6l17 583l190 -559l74 8l100 594 l98 -594l74 -8l187 559l20 -583l61 -6l246 432q-94 -553 -180 -578q-233 88 -506 88q-242 0 -512 -88q-61 49 -115 268q-6 27 -21 104t-40 206zM469 23q41 41 41 127q0 55 -25 96q143 82 461 82q303 0 467 -84q-33 -39 -33 -105q0 -61 37 -116q-231 74 -471 73 q-260 1 -477 -73zM489 1274q0 59 60 59q59 0 59 -59t-59 -60q-60 1 -60 60zM504 -35q172 68 442 68q98 0 225 -19q143 -18 215 -49q-121 -63 -364 -63h-148q-251 0 -370 63zM887 1331q0 59 59 60q59 0 60 -60q0 -59 -60 -59q-59 0 -59 59zM1284 1274q0 59 59 59t60 -59 q0 -59 -60 -60q-59 1 -59 60zM1649 1120q0 59 59 60q59 0 59 -60q0 -59 -59 -59t-59 59z" />
<glyph unicode="&#xcb;" horiz-adv-x="1558" d="M68 61v-213h1425v213h-133v129l-160 160v639l184 150v323h-274v-137h-158v137h-344v-139h-157v139h-275v-323l184 -150v-641l-159 -160v-127h-133zM141 -10h1278v-68h-1278v68zM250 1176v213h127v-140h305v140h197v-140h305v140h127v-213l-185 -148h-692zM274 61v95 l160 159h692l160 -159v-95h-1012zM434 389v565h692v-565h-692z" />
<glyph unicode="&#xcc;" horiz-adv-x="1873" d="M68 23l131 -187q78 53 200 53q20 0 48 -3t67 -7q76 -12 117 -12q207 0 307 143q100 -143 307 -143q37 0 115 12q39 4 67.5 7t49.5 3q123 0 200 -53l131 187q-111 115 -266 114q-23 0 -59.5 -3t-83.5 -11q-96 -12 -144 -12q-45 0 -88 20q-53 25 -53 62q119 31 125 30 q90 31 90 74l-82 217q160 172 160 317q0 272 -416 445q94 82 94 137q0 63 -42 103t-105 40t-105 -39.5t-42 -103.5q0 -55 94 -137q-416 -184 -416 -445q0 -143 160 -317q-29 -72 -48.5 -127t-33.5 -90q0 -43 90 -74q4 -2 36 -9t89 -21q0 -37 -53 -62q-43 -20 -88 -20 q-49 0 -144 12q-47 8 -84 11t-59 3q-155 1 -266 -114zM166 10q78 51 186 51q49 0 133 -14q88 -12 133 -12q72 0 140 37q78 43 78 108h63q0 -111 -73.5 -174t-186.5 -63q-39 0 -109 12q-35 4 -62.5 7t-45.5 3q-117 0 -199 -37zM547 811q0 270 391 430q55 -23 121 -61 q18 -10 46 -30t64 -46q86 -61 123 -127t37 -166q0 -92 -143 -248q-111 37 -248 37t-248 -37q-143 156 -143 248zM635 315l63 174q80 33 240 33q156 0 240 -33l65 -176q-82 -57 -305 -57q-225 0 -303 59zM745 844h156v-156h74v156h155v74h-155v149h-74v-149h-156v-74z M862 1413q0 29 23.5 55.5t52.5 26.5q33 0 54.5 -24.5t21.5 -57.5t-21.5 -60.5t-54.5 -27.5t-54.5 27.5t-21.5 60.5zM977 180h63q0 -66 78 -108q68 -37 139 -37q43 0 134 12q84 14 133 14q104 0 186 -51l-57 -82q-86 37 -199 37q-18 0 -46 -3t-62 -7q-72 -12 -109 -12 q-113 0 -186.5 63t-73.5 174z" />
<glyph unicode="&#xcd;" horiz-adv-x="1794" d="M68 397q0 -41 77 -131q76 -88 117 -88q33 0 39 31q31 -57 76 -57q20 0 121 124q29 35 84 79t137 98q162 98 182 135h14q0 -104 -104 -234q-57 -68 -101 -118t-73 -82q-98 -117 -98 -306h1187q0 559 -131 883q-186 461 -645 545q-10 29 -24.5 57.5t-34.5 57.5 q-53 78 -90 77q-61 -41 -109 -196h-30q-31 53 -95 114q-76 76 -118 76q-49 0 -50 -100q0 -53 37 -154q-27 -35 -52.5 -80t-47.5 -100l-37 -98q-18 -49 -37 -96q-96 -168 -121 -211q-73 -134 -73 -226zM131 403q0 63 158 338q33 57 104 228q61 145 121 223l-43 197 q88 -63 135 -156q-84 -84 -84 -115q0 -35 25 -31q123 98 162 99l36 -12q0 125 70 219q43 -53 55 -115q6 -35 7 -127h53l20 72q639 -139 639 -1080v-227h-966q0 117 96 236q63 78 107 131t69 82q96 121 96 297q33 63 33 219h-70q0 -186 -147 -281q-104 -66 -175 -110 t-112 -66q-45 -29 -147 -182l-33 8q33 72 51 98v6q0 27 -29 27q-23 0 -108 -105q-23 0 -74 52q-49 50 -49 75zM190 430q0 -39 29 -39q23 0 49 39q31 39 31 64q0 31 -35 30q-12 0 -25.5 -10t-23.5 -24.5t-17.5 -31t-7.5 -28.5zM414 872q12 -23 53 -32l14 14q-8 18 -10 39 l16 22q43 -23 58 -32q37 0 37 35q0 6 -5.5 14t-12.5 17t-13 16.5t-6 11.5q6 8 26.5 13t26.5 14l-14 14l-37 2q-45 2 -90 -49q-43 -54 -43 -99z" />
<glyph unicode="&#xce;" horiz-adv-x="1370" d="M68 -152h1232q0 283 -63 418q-82 180 -311 279q156 94 155 235q0 213 -247 299q68 55 67 154q0 92 -62.5 147.5t-154.5 55.5t-154.5 -55.5t-62.5 -147.5q0 -98 68 -154q-248 -88 -248 -299q0 -143 155 -235q-229 -98 -311 -279q-63 -139 -63 -418zM145 -72q0 238 88 357 q76 102 302 217v78q-172 106 -173 213q0 147 252 243v78q-72 53 -71 119q0 57 41 92t100 35q141 0 141 -127q0 -66 -71 -119v-78q252 -96 252 -243q0 -106 -172 -213v-78q223 -113 299 -217q90 -125 90 -357h-1078z" />
<glyph unicode="&#xcf;" horiz-adv-x="1617" d="M68 0v-96h1480v96h-690v1475h-98v-1475h-692z" />
<glyph unicode="&#xd1;" horiz-adv-x="1767" d="M68 590h1628v211h-1628v-211z" />
<glyph unicode="&#xd2;" horiz-adv-x="2000" d="M68 0h1214v295h647v860h-1227v-297h-634v-858zM168 96v664h534v-465h482v-199h-1016zM801 393v367h383v-367h-383zM801 858v197h1030v-662h-549v465h-481z" />
<glyph unicode="&#xd3;" horiz-adv-x="2000" d="M68 0h1214v295h647v860h-1227v-297h-634v-858zM168 96v664h534v-465h482v-199h-1016z" />
<glyph unicode="&#xd4;" horiz-adv-x="2000" d="M68 0h1214v295h647v860h-1227v-297h-634v-858z" />
<glyph unicode="&#xd5;" horiz-adv-x="1755" d="M68 514q0 -150 112 -274q115 -133 260 -134q113 0 191 50q51 33 139 139q35 45 62.5 71.5t46.5 36.5q41 -37 110 -155q35 -57 64.5 -96t56.5 -60q72 -59 193 -59q197 0 299 160q84 133 84 344q0 178 -107 309q-115 141 -289 141q-209 0 -358 -266q-53 -92 -66 -105 l-164 197q-80 96 -231 96q-174 0 -289 -112q-114 -111 -114 -283zM115 528q0 137 94 223.5t233 86.5q123 0 248 -95q135 -102 135 -217q0 -84 -141 -219q-143 -133 -227 -133q-168 0 -255 93t-87 261zM934 471q0 106 145.5 258t251.5 152q131 0 228 -109q94 -106 94 -242 q0 -143 -88 -243q-90 -102 -228 -103q-147 0 -229 43q-92 49 -152 176q-22 50 -22 68z" />
<glyph unicode="&#xd6;" horiz-adv-x="16" d="M293 1112h33l221 346h-189zM606 1112h33l221 346h-188z" />
<glyph unicode="&#xd8;" horiz-adv-x="569" d="M168 -408h344v82h-242v2036h242v82h-344v-2200z" />
<glyph unicode="&#xd9;" horiz-adv-x="1937" d="M68 487q0 -170 122 -299q123 -127 293 -127q168 0 287 132q117 125 117 294q0 170 -119 295q-121 127 -285 127q-172 0 -295 -125q-120 -127 -120 -297zM150 485q0 145 94 246q96 102 239 103q143 0 234 -99q92 -98 92 -243q0 -143 -90 -246q-92 -106 -236 -107 q-143 0 -237 101q-96 102 -96 245zM1049 487q0 -166 120 -297q119 -129 289 -129q166 0 287 129q121 131 121 297q0 168 -121 295t-287 127t-289 -127q-120 -127 -120 -295zM1130 485q0 143 93 246q96 102 235 103q143 0 236 -99q94 -96 94 -243q0 -150 -92 -250 q-92 -102 -238 -103q-139 0 -235 103q-93 100 -93 243z" />
<glyph unicode="&#xda;" horiz-adv-x="956" d="M68 111q0 -168 120 -295q123 -125 295 -125q164 0 285 127q119 125 119 293q0 170 -119 295q-121 129 -285 129q-172 0 -295 -127q-120 -127 -120 -297zM68 1069q0 -172 120 -299q123 -125 295 -125q168 0 285 127q119 127 119 297t-119 295q-121 127 -285 127 q-172 0 -295 -125q-120 -125 -120 -297zM150 109q0 145 94 245q96 102 239 103q147 0 236 -101q90 -100 90 -243t-92 -244q-90 -102 -234 -102q-141 0 -237 102.5t-96 239.5zM150 1067q0 141 96 243.5t237 102.5q145 0 236 -98q90 -96 90 -242q0 -143 -90 -246 q-96 -109 -236 -108q-143 0 -239 102q-94 101 -94 246z" />
<glyph unicode="&#xdb;" horiz-adv-x="2463" d="M68 500q0 -172 120 -299q123 -127 295 -127q168 0 287 131q117 125 117 295q0 168 -119 293q-121 129 -285 129q-172 0 -295 -125q-120 -127 -120 -297zM150 498q0 141 96 243.5t237 102.5q143 0 234 -99q92 -98 92 -243q0 -143 -90 -246q-92 -106 -236 -106 q-143 0 -239 102q-94 101 -94 246zM1004 502q0 -35 25.5 -59.5t60.5 -24.5q33 0 60.5 25.5t27.5 58.5q0 35 -24 62.5t-56 27.5q-35 0 -64.5 -27.5t-29.5 -62.5zM1286 502q0 -33 27.5 -58.5t60.5 -25.5q35 0 59.5 24.5t24.5 59.5t-29.5 62.5t-64.5 27.5q-33 0 -55.5 -28.5 t-22.5 -61.5zM1577 500q0 -172 119 -299q121 -127 286 -127q168 0 289 127q123 129 123 299q0 168 -123 295q-121 127 -289 127q-166 0 -286 -127q-119 -125 -119 -295zM1655 502q0 143 90 243q92 98 237 99q139 0 236 -105q96 -102 96 -241t-96 -246q-96 -102 -236 -102 q-143 0 -235 104.5t-92 247.5z" />
<glyph unicode="&#xdc;" horiz-adv-x="16" d="M223 1458l191 -330h184l190 330h-32l-250 -211l-250 211h-33z" />
<glyph unicode="&#xdd;" horiz-adv-x="1478" d="M134 1510v1450h100v-1356h1114v-94h-1214zM27 1319q117 0 196 -123l420 -639v-297q0 -133 -29 -174q-35 -49 -163 -49v-37h577v37q-133 0 -166 49q-27 35 -26 174v315l344 543q127 201 276 201v37h-473v-37q137 0 137 -98q0 -66 -157 -303l-168 -254q-66 94 -114 164.5 t-81 117.5q-152 225 -151 283q0 90 157 90v37h-579v-37z" />
<glyph unicode="&#xdf;" horiz-adv-x="595" d="M68 -143h104v1599h-104v-1599zM422 -143h104v1599h-104v-1599z" />
<glyph unicode="&#xe0;" horiz-adv-x="16" d="M653 1620q0 -47 32 -79t79 -32t78.5 32t31.5 79t-31.5 79t-78.5 32t-79 -32t-32 -79z" />
<glyph unicode="&#xe1;" horiz-adv-x="1644" d="M133 1296l17 -28q49 20 67 20q35 0 35 -133v-377q0 -41 -14 -67q-20 -4 -42 -7.5t-46 -3.5v-36h329v36q-25 0 -46 3.5t-42 7.5q-25 49 -24 262q0 35 1 86t3 119q6 137 6 206h-39zM244 -51h90l934 1435h-88zM942 0h494l59 152h-43q-33 -57 -141 -58h-211q80 68 133 117 t82 78q129 137 129 243q0 86 -78 140q-72 49 -160 49q-213 0 -243 -209h45q37 115 166 115q61 0 103 -40t42 -102q0 -109 -143 -252q-66 -66 -234 -196v-37z" />
<glyph unicode="&#xe2;" horiz-adv-x="16" d="M432 1468h31q18 139 96 140q25 0 145.5 -70t176.5 -70q100 0 149 86q41 72 41 177h-31q-18 -139 -96 -140q-25 0 -145.5 70t-175.5 70q-100 0 -150 -86q-41 -73 -41 -177z" />
<glyph unicode="&#xe3;" horiz-adv-x="569" d="M55 831l15 -34q43 16 69 16q72 0 72 -139v-500q0 -80 -30.5 -108.5t-110.5 -28.5v-37h448v37q-80 0 -110.5 28.5t-30.5 108.5v770h-45zM180 1051h35l293 346h-223z" />
<glyph unicode="&#xe4;" horiz-adv-x="16" d="M479 1757q0 -117 84 -201q82 -80 203 -79q119 0 203 79q84 84 84 201h-33q-59 -129 -254 -129q-199 0 -254 129h-33z" />
<glyph unicode="&#xe5;" horiz-adv-x="16" d="M500 1630q0 -47 31.5 -78.5t78.5 -31.5t79 31.5t32 78.5t-32 79t-79 32t-78.5 -32t-31.5 -79zM850 1630q0 -47 31.5 -78.5t79.5 -31.5q47 0 78.5 31.5t31.5 78.5t-31.5 79t-78.5 32t-79 -32t-32 -79z" />
<glyph unicode="&#xe6;" horiz-adv-x="16" d="M416 1118h35l292 346h-223z" />
<glyph unicode="&#xe7;" horiz-adv-x="16" d="M582 1665q0 -41 15 -76t41 -60.5t60.5 -40.5t75.5 -15q39 0 75 15t61.5 40.5t41 60.5t15.5 76q0 39 -15.5 75t-41 61.5t-61.5 41t-75 15.5q-41 0 -75.5 -15.5t-60.5 -41t-41 -61.5t-15 -75zM651 1665q0 51 36 87t87 36t87 -36t36 -87t-36 -87t-87 -36t-87 36t-36 87z" />
<glyph unicode="&#xe8;" horiz-adv-x="16" d="M477 1839l191 -330h184l190 330h-32l-250 -211l-250 211h-33z" />
<glyph unicode="&#xe9;" horiz-adv-x="16" d="M471 1452h33l250 211l250 -211h32l-190 330h-184z" />
<glyph unicode="&#xea;" horiz-adv-x="16" d="M532 -362q70 -16 125 -17q90 0 164 49q84 55 84 142q0 141 -170 141l-133 -72q55 0 99 -30.5t44 -83.5q0 -45 -39.5 -77t-87.5 -32q-23 0 -77 18z" />
<glyph unicode="&#xeb;" horiz-adv-x="16" d="M565 1454h33l221 346h-188zM879 1454h32l222 346h-189z" />
<glyph unicode="&#xec;" horiz-adv-x="1632" d="M68 -94h1495v1446h-1495v-1446zM168 0v1253h1296v-1253h-1296z" />
<glyph unicode="&#xed;" horiz-adv-x="1558" d="M70 678q0 -305 200 -506q205 -201 508 -201q305 0 506 201q203 201 203 506t-203 506q-201 203 -506 202q-305 0 -508 -202q-200 -201 -200 -506zM131 678q0 279 184.5 463t462.5 184q281 0 463 -184q184 -182 184 -463t-184 -465q-182 -182 -463 -182q-279 0 -465 182 q-182 186 -182 465zM319 666q0 -193 131.5 -316t327.5 -123q254 0 389 203l-39 21q-106 -162 -309 -162q-334 0 -334 411q0 166 78 273q86 117 248 117q238 0 299 -236h39l-21 281h-38l-21 -33l-29 -12q-20 4 -47.5 11t-62.5 15q-72 18 -109 19q-211 0 -354 -127 q-148 -133 -148 -342z" />
<glyph unicode="&#xee;" horiz-adv-x="768" d="M68 999l24 -26l199 268l24 14q27 2 27 -28v-1346h86v1346q0 29 27 28q27 0 221 -282l22 26l-319 496z" />
<glyph unicode="&#xef;" horiz-adv-x="1759" d="M68 520h1353q27 0 27 -26l-12 -21l-267 -197l23 -26l498 323l-498 308l-23 -25l267 -197l12 -20q0 -29 -27 -29l-1353 -2v-88z" />
<glyph unicode="&#xf1;" horiz-adv-x="569" d="M55 831l15 -34q43 16 69 16q72 0 72 -139v-500q0 -80 -30.5 -108.5t-110.5 -28.5v-37h448v37q-80 0 -110.5 28.5t-30.5 108.5v770h-45z" />
<glyph unicode="&#xf2;" horiz-adv-x="16" d="M350 1231q0 -47 32 -79t79 -32t78.5 32t31.5 79t-31.5 78.5t-78.5 31.5t-79 -31.5t-32 -78.5z" />
<glyph unicode="&#xf3;" d="M82 262h860v860h-860v-860z" />
<glyph unicode="&#xf4;" horiz-adv-x="16" d="M205 1102h31q18 139 96 139q25 0 145.5 -69.5t175.5 -69.5q100 0 150 86q41 72 41 176h-31q-18 -139 -96 -139q-25 0 -145.5 69.5t-176.5 69.5q-100 0 -149 -86q-41 -72 -41 -176z" />
<glyph unicode="&#xf5;" horiz-adv-x="1697" d="M137 0l1501 657l-1501 658v-1315z" />
<glyph unicode="&#xf6;" horiz-adv-x="16" d="M225 1372q0 -117 84 -201q82 -80 203 -79q119 0 203 79q84 84 84 201h-33q-59 -129 -254 -129q-199 0 -254 129h-33z" />
<glyph unicode="&#xf8;" horiz-adv-x="569" d="M57 -326v-82h344v2200h-344v-82h242v-2036h-242z" />
<glyph unicode="&#xf9;" horiz-adv-x="16" d="M268 1239q0 -41 15.5 -76t41 -60.5t60.5 -40.5t76 -15q39 0 74.5 15t61.5 40.5t41 60.5t15 76q0 39 -15 75t-41 61.5t-61.5 41t-74.5 15.5q-41 0 -76 -15.5t-60.5 -41t-41 -61.5t-15.5 -75zM338 1239q0 51 36 87t87 36t87 -36t36 -87t-36 -87t-87 -36t-87 36t-36 87z" />
<glyph unicode="&#xfa;" horiz-adv-x="1200" d="M63 477h1076v82h-1076v-82zM63 801h1076v82h-1076v-82z" />
<glyph unicode="&#xfb;" horiz-adv-x="16" d="M186 1231q0 -47 32 -79t79 -32t79 32t32 79t-32 78.5t-79 31.5t-79 -31.5t-32 -78.5zM537 1231q0 -47 31.5 -79t78.5 -32t79 32t32 79t-32 78.5t-79 31.5t-78.5 -31.5t-31.5 -78.5z" />
<glyph unicode="&#xfc;" horiz-adv-x="16" d="M725 1425h35l293 347h-224z" />
<glyph unicode="&#xfd;" d="M-96 1067v1450h100v-1356h1114v-94h-1214zM12 879q94 -8 172 -174l320 -668q-29 -76 -47.5 -121t-26.5 -61q-66 -127 -131 -127q-23 0 -68 18q-47 18 -67 18q-104 0 -105 -90q0 -53 41 -83.5t97 -30.5q94 0 184 84q76 70 117 172l391 956q43 106 123 107v36h-299v-36 q92 0 92 -52q0 -82 -98 -305l-123 -280q-53 104 -91 174.5t-59 111.5q-106 211 -106 277q0 74 110 74v36h-426v-36z" />
<glyph unicode="&#xff;" horiz-adv-x="16" d="M262 -360q70 -16 125 -17q90 0 164 49q84 55 84 142q0 141 -170 141l-133 -72q55 0 99 -30.5t44 -83.5q0 -45 -40 -77t-87 -32q-23 0 -78 18z" />
<glyph unicode="&#x152;" horiz-adv-x="2729" d="M1518 0h1051l114 340h-39q-41 -70 -74.5 -117t-62.5 -71q-88 -78 -215 -78h-278q-61 0 -86 21.5t-25 80.5v496h272q129 0 176 -35q49 -41 62 -166h37v473h-37q0 -125 -60 -166q-47 -33 -178 -33h-272v537h346q145 0 201 -43q57 -39 86 -180h41l-19 297h-1040v-37 q131 0 166 -49q27 -35 26 -174v-836q0 -133 -28 -174q-35 -49 -164 -49v-37zM76 678q0 -305 178 -502q184 -205 485 -205t486 205q178 197 178 502t-178 502q-184 207 -486 206q-301 0 -485 -206q-178 -197 -178 -502zM305 678q0 260 86 424q111 211 348 211q238 0 348 -211 q86 -164 87 -424q0 -262 -87 -424q-111 -211 -348 -211q-238 0 -348 211q-86 162 -86 424z" />
<glyph unicode="&#x153;" horiz-adv-x="1933" d="M1094 442q0 -195 100 -325q111 -143 299 -144q147 0 252 109q94 98 123 252l-31 20q-78 -219 -274 -219q-164 0 -252 141q-78 121 -78 293h635q0 166 -94 269q-94 106 -256 106q-207 0 -322 -151q-102 -138 -102 -351zM1235 631q0 94 61 166q61 74 154 73 q104 0 156.5 -66.5t52.5 -172.5h-424zM70 449q0 -195 116 -332q119 -143 314 -144q207 0 334 152q121 145 120 354q0 199 -123 332q-121 133 -317 133q-197 0 -326 -151q-118 -143 -118 -344zM256 537q0 338 223 337q154 0 232 -172q57 -127 57 -309q0 -352 -221 -352 q-156 0 -232 180q-59 142 -59 316z" />
<glyph unicode="&#x2c6;" horiz-adv-x="1646" d="M70 -18l82 -82l671 669l672 -669l82 82l-672 669l672 672l-82 82l-672 -672l-671 672l-82 -82l671 -672z" />
<glyph unicode="&#x2dc;" horiz-adv-x="512" d="M-804 573l499 -451l31 39l-158 158l4 49h867v-49l-162 -158l35 -39l495 451l-495 434l-35 -39l162 -157v-48h-867l-4 48l158 157l-31 39zM-686 573l127 106h1127l123 -106l-127 -121h-1121z" />
<glyph unicode="&#x2000;" horiz-adv-x="1478" />
<glyph unicode="&#x2001;" horiz-adv-x="2959" />
<glyph unicode="&#x2002;" horiz-adv-x="1478" />
<glyph unicode="&#x2003;" horiz-adv-x="2959" />
<glyph unicode="&#x2004;" horiz-adv-x="985" />
<glyph unicode="&#x2005;" horiz-adv-x="739" />
<glyph unicode="&#x2006;" horiz-adv-x="491" />
<glyph unicode="&#x2007;" horiz-adv-x="491" />
<glyph unicode="&#x2008;" horiz-adv-x="368" />
<glyph unicode="&#x2009;" horiz-adv-x="591" />
<glyph unicode="&#x200a;" horiz-adv-x="163" />
<glyph unicode="&#x2010;" horiz-adv-x="669" d="M82 381h518v158h-518v-158z" />
<glyph unicode="&#x2011;" horiz-adv-x="669" d="M82 381h518v158h-518v-158z" />
<glyph unicode="&#x2012;" horiz-adv-x="669" d="M82 381h518v158h-518v-158z" />
<glyph unicode="&#x2013;" d="M82 381v158h872v-158h-872z" />
<glyph unicode="&#x2014;" horiz-adv-x="2048" d="M82 381v158h1896v-158h-1896z" />
<glyph unicode="&#x2018;" horiz-adv-x="1351" d="M68 -92h1214v92h-1114v1356h-100v-1448z" />
<glyph unicode="&#x2019;" horiz-adv-x="681" d="M188 1270q0 -43 31 -74t74 -31q12 0 34.5 8.5t34.5 8.5q37 0 37 -62q0 -66 -53 -123q-31 -31 -113 -82v-47q117 35 189 119t72 201q0 39 -12.5 74.5t-35 63.5t-54.5 44t-68 16q-55 0 -95.5 -31.5t-40.5 -84.5z" />
<glyph unicode="&#x201c;" horiz-adv-x="835" d="M135 1276q0 -111 27 -238l49 -235h49q12 59 24.5 117.5t24.5 117.5q27 131 27 238q0 111 -100 110q-45 0 -73 -31.5t-28 -78.5zM502 1276q0 -111 26 -238l50 -235h49q12 59 24.5 117.5t24.5 117.5q27 131 26 238q0 111 -100 110q-45 0 -72.5 -31.5t-27.5 -78.5z" />
<glyph unicode="&#x201d;" horiz-adv-x="835" d="M135 1276q0 -111 27 -238l49 -235h49q12 59 24.5 117.5t24.5 117.5q27 131 27 238q0 111 -100 110q-45 0 -73 -31.5t-28 -78.5zM502 1276q0 -111 26 -238l50 -235h49q12 59 24.5 117.5t24.5 117.5q27 131 26 238q0 111 -100 110q-45 0 -72.5 -31.5t-27.5 -78.5z" />
<glyph unicode="&#x2026;" horiz-adv-x="1536" d="M1169 82q0 -47 32 -78t79 -31t79 31t32 78t-32 79t-79 32t-79 -32t-32 -79zM657 82q0 -47 32 -78t79 -31t79 31t32 78t-32 79t-79 32t-79 -32t-32 -79zM145 82q0 -47 32 -78t79 -31t79 31t32 78t-32 79t-79 32t-79 -32t-32 -79z" />
<glyph unicode="&#x202f;" horiz-adv-x="591" />
<glyph unicode="&#x2039;" horiz-adv-x="978" d="M68 266q0 -172 125 -291q127 -121 294 -120q168 0 295 120q125 119 125 291q0 154 -106 281q-113 137 -262 137v580h39l110 -152h76l-272 385l-277 -385h72l114 152h39v-580q-154 0 -266 -135q-106 -125 -106 -283zM158 264q0 133 98 236q98 104 229 104q137 0 236 -100 q98 -102 98 -240q0 -129 -102 -225q-100 -94 -230 -94q-129 0 -229 94t-100 225z" />
<glyph unicode="&#x203a;" horiz-adv-x="1693" d="M68 0l1556 610v107l-1556 596v-92l1437 -557l-1437 -576v-88z" />
<glyph unicode="&#x205f;" horiz-adv-x="739" />
<glyph unicode="&#x2122;" horiz-adv-x="3072" d="M1288 0h473v37q-123 0 -160 45q-33 39 -33 166l5 887l520 -1135h32l523 1135v-875q0 -133 -29 -174q-35 -49 -164 -49v-37h578v37q-133 0 -166 49q-27 35 -27 174v836q0 133 29 174q33 49 164 49v37h-383l-486 -1061l-491 1061h-385v-37q123 0 164 -55q29 -41 28 -166 v-838q0 -133 -28 -174q-35 -49 -164 -49v-37zM57 1038h37q0 229 232 230h202v-1008q0 -133 -28 -174q-35 -49 -164 -49v-37h577v37q-133 0 -165 49q-27 35 -27 174v1008h203q231 0 231 -230h37l-14 318h-1106z" />
<glyph unicode="&#xe000;" horiz-adv-x="915" d="M0 915h915v-915h-915v915z" />
<glyph unicode="&#xfb01;" horiz-adv-x="1251" d="M737 831l15 -34q43 16 69 16q72 0 72 -139v-500q0 -80 -30.5 -108.5t-110.5 -28.5v-37h448v37q-80 0 -110.5 28.5t-30.5 108.5v770h-45zM875 1321q0 -43 28.5 -71.5t71.5 -28.5t71.5 28.5t28.5 71.5t-28.5 71.5t-71.5 28.5t-71.5 -28.5t-28.5 -71.5zM78 842h178v-574 q0 -129 -23 -170q-35 -61 -151 -61v-37h510v37q-117 0 -150 61q-20 39 -20 170v574h235v73h-235v166q0 115 16 170q31 96 121 97q45 0 135 -91q88 -88 113 -88q31 0 56.5 26t25.5 56q0 78 -88 127q-78 43 -160 43q-385 0 -385 -506h-178v-73z" />
<glyph unicode="&#xfb02;" horiz-adv-x="1251" d="M737 1309l15 -35q43 16 69 16q72 0 72 -139v-977q0 -80 -30.5 -108.5t-110.5 -28.5v-37h448v37q-80 0 -110.5 28.5t-30.5 108.5v1247h-45zM78 842h178v-574q0 -129 -23 -170q-35 -61 -151 -61v-37h510v37q-117 0 -150 61q-20 39 -20 170v574h235v73h-235v166 q0 115 16 170q31 96 121 97q45 0 135 -91q88 -88 113 -88q31 0 56.5 26t25.5 56q0 78 -88 127q-78 43 -160 43q-385 0 -385 -506h-178v-73z" />
<glyph unicode="&#xfb03;" horiz-adv-x="1933" d="M1419 831l15 -34q43 16 69 16q72 0 72 -139v-500q0 -80 -30.5 -108.5t-110.5 -28.5v-37h448v37q-80 0 -110.5 28.5t-30.5 108.5v770h-45zM1557 1321q0 -43 28.5 -71.5t71.5 -28.5t71.5 28.5t28.5 71.5t-28.5 71.5t-71.5 28.5t-71.5 -28.5t-28.5 -71.5zM760 842h178v-574 q0 -129 -23 -170q-35 -61 -151 -61v-37h510v37q-117 0 -150 61q-20 39 -20 170v574h235v73h-235v166q0 115 16 170q31 96 121 97q45 0 135 -91q88 -88 113 -88q31 0 56.5 26t25.5 56q0 78 -88 127q-78 43 -160 43q-385 0 -385 -506h-178v-73zM78 842h178v-574 q0 -129 -23 -170q-35 -61 -151 -61v-37h510v37q-117 0 -150 61q-20 39 -20 170v574h235v73h-235v166q0 115 16 170q31 96 121 97q45 0 135 -91q88 -88 113 -88q31 0 56.5 26t25.5 56q0 78 -88 127q-78 43 -160 43q-385 0 -385 -506h-178v-73z" />
<glyph unicode="&#xfb04;" horiz-adv-x="1933" d="M1419 1309l15 -35q43 16 69 16q72 0 72 -139v-977q0 -80 -30.5 -108.5t-110.5 -28.5v-37h448v37q-80 0 -110.5 28.5t-30.5 108.5v1247h-45zM760 842h178v-574q0 -129 -23 -170q-35 -61 -151 -61v-37h510v37q-117 0 -150 61q-20 39 -20 170v574h235v73h-235v166 q0 115 16 170q31 96 121 97q45 0 135 -91q88 -88 113 -88q31 0 56.5 26t25.5 56q0 78 -88 127q-78 43 -160 43q-385 0 -385 -506h-178v-73zM78 842h178v-574q0 -129 -23 -170q-35 -61 -151 -61v-37h510v37q-117 0 -150 61q-20 39 -20 170v574h235v73h-235v166q0 115 16 170 q31 96 121 97q45 0 135 -91q88 -88 113 -88q31 0 56.5 26t25.5 56q0 78 -88 127q-78 43 -160 43q-385 0 -385 -506h-178v-73z" />
</font>
</defs>
</svg>
